Важное объявление!
У Нас Все раздачи мультитрекерные, при нуле пиров в релизах, можете смело вставать на закачку!
 
Автор Сообщение

HUNTER

Стаж:
4 года 7 месяцев
Сообщений:
61582

Репутация: 101

[+] [-]
Вне форума [Профиль] [ЛС]

Снежная Королева / The Snow Queen
Страна: США
Жанр: Анимация
Продолжительность: 01:15:37
Год выпуска: 1995
Перевод: Профессиональный (дублированный) Варус
Русские субтитры: нет
Режиссёр: Мартин Гэйтс / Martin Gates
Роли озвучивали: В главных ролях:
Элли Бивен
Дэвид Джейсон
Хью Лори
Хелен Миррен
Рик Майял
Джулия МакКензи
Имелда Стонтон
Дэмиэн Хант
Зизи Страллен
Расселл Флойд
Роли дублировали:
Владимир Ферапонтов
Вячеслав Баранов
Игорь Письменный
Игорь Ясулович
Ирина Губанова
Описание: Однажды, в обычном доме, в обычном городе, вместе с бабушкой жили Том и Элли. И все у них было хорошо до тех пор, пока Снежная королева не решила превратить весь мир в свое ледовое царство.
Она создала волшебное зеркало, которое отражало бы лучи Солнца, и велела верным троллям отнести его на высокую гору. Но неуклюжие слуги разбили зеркало на мелкие кусочки, разлетевшиеся по всему свету.
И два самых маленьких осколка попали Тому в глаза — и он стал видеть белое черным, и в сердце — оно стало злым и холодным.
Доп. информация: За оцифровку VHS спасибо Воронеж-1
Релиз
Семпл: https://yadi.sk/i/pL6FRzGav7nZ2
Качество: VHSRip
Формат: AVI
Видео: 704x528 (1.33:1), 25 fps, XviD build 73 ~1831 kbps avg, 0.20 bit/pixel
Аудио: 48 kHz, AC3 Dolby Digital, 2/0 (L,R) ch, ~192 kbps
Субтитры: отсутствуют

Подробные технические данные

Снежная королева - The Snow Queen [by Edich2].aviFormat : AVIFormat/Info : Audio Video InterleaveFile size : 1.09 GiBDuration : 1 h 15 minOverall bit rate : 2 033 kb/sMovie name : Снежная королева - The Snow Queen [by Edich2]Director : by Edich2Writing application : VirtualDubMod 1.5.10.3 | www.virtualdub-fr.org || (build 2550/release)Comment : RuTracker.org
VideoID : 0Format : MPEG-4 VisualFormat profile : Advanced Simple@L5Format settings, BVOP : 2Format settings, QPel : NoFormat settings, GMC : No warppointsFormat settings, Matrix : CustomCodec ID : XVIDCodec ID/Hint : XviDDuration : 1 h 16 minBit rate : 1 831 kb/sWidth : 704 pixelsHeight : 528 pixelsDisplay aspect ratio : 4:3Frame rate : 25.000 FPSColor space : YUVChroma subsampling : 4:2:0Bit depth : 8 bitsScan type : ProgressiveCompression mode : LossyBits/(Pixel*Frame) : 0.197Stream size : 1 004 MiB (90%)Writing library : XviD 73
AudioID : 1Format : AC-3Format/Info : Audio Coding 3Mode extension : CM (complete main)Format settings, Endianness : BigCodec ID : 2000Duration : 1 h 16 minBit rate mode : ConstantBit rate : 192 kb/sChannel(s) : 2 channelsChannel positions : Front: L RSampling rate : 48.0 kHzFrame rate : 31.250 FPS (1536 spf)Compression mode : LossyStream size : 105 MiB (9%)Alignment : Split accross interleavesInterleave, duration : 40 ms (1.00 video frame)Interleave, preload duratio : 500 ms

Скриншоты



_________________
Показать сообщения:    

Текущее время: Сегодня 17:39

Часовой пояс: GMT



Вы не можете начинать темы
Вы не можете отвечать на сообщения
Вы не можете редактировать свои сообщения
Вы не можете удалять свои сообщения
Вы не можете голосовать в опросах
Вы не можете прикреплять файлы к сообщениям
Вы не можете скачивать файлы
Наши партнеры: интернет магазин Ивановского трикотажа textilla.ru