Ивановский Торрент трекер
Яндекс.Погода
 

[Цитировать]
HUNTER

Снежная королева-Год выпуска: 1957г.
Страна: СССР
Жанр: Мультфильм
Продолжительность: 01:00:34
Режиссеры: Лев Атаманов
Описание:
В один из морозных зимних вечеров, когда сквозь расписанные причудливым узором окна уютных, теплых ломов прокрадывается темнота, а во дворе тревожно завывает вьюга, Снежная королева умчала маленького Кая в свои ледяные владения и превратила его доброе отзывчивое сердце в осколок льдинки. Через множество испытаний пришлось пройти верной Герде, чтобы добраться до чертогов Снежной королевы и спасти мальчика, освободить его из ледового плена, где царят душевный холод и безразличие
Релиз:
Качество: DVDRip-AVC
Контейнер: MKV
Видео: 718x576 @ 766x576 fps, AVC, 2381 Kbps
Аудио: 48.0 KHz, AC3, 6 ch, 448 Kbps

Скриншоты

Сравнение

Отличный шумодав + неправильное соотношение сторон + неверный SAR
http://rutracker.org/forum/viewtopic.php?t=2651768
http://screenshotcomparison.com/comparison/92410
http://rutracker.org/forum/viewtopic.php?t=3273099
http://screenshotcomparison.com/comparison/92412

Тех.данные

General
Unique ID : 173215344870561024238206262162421565472 (0x82500FDC0B4E9BB5850F79A0C8B5C820)
Complete name : C:\torrent\Owner\Снежная королева\01. Снежная королева.mkv
Format : Matroska
Format version : Version 2
File size : 1.22 GiB
Duration : 1h 0mn
Overall bit rate : 2 886 Kbps
Movie name : Nyc-2008 / rutracker.org / RG Multfilmy
Encoded date : UTC 2011-11-05 11:35:52
Writing application : mkvmerge v5.0.1 ('Es ist Sommer') built on Oct 9 2011 11:55:43
Writing library : libebml v1.2.2 + libmatroska v1.3.0
Video
ID : 1
Format : AVC
Format/Info : Advanced Video Codec
Format profile : High@L4.0
Format settings, CABAC : Yes
Format settings, ReFrames : 16 frames
Codec ID : V_MPEG4/ISO/AVC
Duration : 1h 0mn
Bit rate : 2 381 Kbps
Width : 718 pixels
Height : 576 pixels
Display aspect ratio : 4:3
Frame rate : 25.000 fps
Color space : YUV
Chroma subsampling : 4:2:0
Bit depth : 8 bits
Scan type : Progressive
Bits/(Pixel*Frame) : 0.230
Stream size : 1.01 GiB (82%)
Writing library : x264 core 118 r2085kMod 8a62835
Encoding settings : cabac=1 / ref=16 / deblock=1:0:0 / analyse=0x3:0x113 / me=umh / subme=10 / psy=1 / fade_compensate=0.00 / psy_rd=1.00:0.10 / mixed_ref=1 / me_range=24 / chroma_me=1 / trellis=2 / 8x8dct=1 / cqm=0 / deadzone=21,11 / fast_pskip=0 / chroma_qp_offset=-3 / threads=6 / sliced_threads=0 / nr=0 / decimate=1 / interlaced=0 / bluray_compat=0 / constrained_intra=0 / bframes=10 / b_pyramid=2 / b_adapt=2 / b_bias=0 / direct=1 / weightb=1 / open_gop=0 / weightp=2 / keyint=250 / keyint_min=25 / scenecut=40 / intra_refresh=0 / rc_lookahead=60 / rc=crf / mbtree=1 / crf=19.1900 / qcomp=0.60 / qpmin=0 / qpmax=69 / qpstep=4 / ip_ratio=1.40 / aq=2:1.00
Language : Russian
Audio
ID : 2
Format : AC-3
Format/Info : Audio Coding 3
Mode extension : CM (complete main)
Codec ID : A_AC3
Duration : 1h 0mn
Bit rate mode : Constant
Bit rate : 448 Kbps
Channel(s) : 6 channels
Channel positions : Front: L C R, Side: L R, LFE
Sampling rate : 48.0 KHz
Bit depth : 16 bits
Compression mode : Lossy
Delay relative to video : 402ms
Stream size : 194 MiB (16%)
Language : Russian


Показать сообщения:    

Текущее время: 14-Дек 10:05

Часовой пояс: UTC ± 0


Вы не можете начинать темы
Вы не можете отвечать на сообщения
Вы не можете редактировать свои сообщения
Вы не можете удалять свои сообщения
Вы не можете голосовать в опросах
Вы не можете прикреплять файлы к сообщениям
Вы не можете скачивать файлы

!ВНИМАНИЕ!
Сайт не предоставляет электронные версии произведений, а занимается лишь коллекционированием и каталогизацией ссылок, присылаемых и публикуемых на форуме нашими читателями. Если вы являетесь правообладателем какого-либо представленного материала и не желаете, чтобы ссылка на него находилась в нашем каталоге, свяжитесь с нами, и мы незамедлительно удалим ее. Файлы для обмена на трекере предоставлены пользователями сайта, и администрация не несет ответственности за их содержание. Просьба не заливать файлы, защищенные авторскими правами, а также файлы нелегального содержания!