Важное объявление!
У Нас Все раздачи мультитрекерные, при нуле пиров в релизах, можете смело вставать на закачку!
 
Автор Сообщение

HUNTER

Стаж:
4 года 7 месяцев
Сообщений:
61546

Репутация: 101

[+] [-]
Вне форума [Профиль] [ЛС]

Смешанные / Blended-
  • Год выпуска: 2014
  • Страна: США
  • Жанр: комедия, семейный
  • Продолжительность: 01:57:13
  • Перевод: Профессиональный (полное дублирование) [лицензия BD CEE]
  • Субтитры: Русские (полные + форс.), украинские (полные + форс.), английские (Full + SDH + SDH-Colored)
-
  • Режиссер: Фрэнк Корачи
  • Сценарий: Иван Менчелл, Клер Сера
  • Продюсер: Джек Джиррапуто, Майк Карц, Адам Сэндлер
  • Оператор: Хулио Макат
  • Композитор: Руперт Грегсон-Уильямс
  • Художник: Перри Энделин Блейк, Алан Ау, Эндрю Орландо
  • Монтаж: Том Костэйн
- -
  • Описание: После катастрофического свидания «вслепую»? родители-одиночки Лорен и Джим согласны только в одном: они не хотят больше видеть друг друга никогда! Полагая, что их знакомство окончено, обе семьи пользуются удобным случаем и отправляются в идеальный отпуск с детьми. А оказываются в одних и тех же гостиничных апартаментах на роскошном южноафриканском курорте аж на целую неделю.
--
  • Бюджет: $40 000 000
  • Сборы в США: $46 290 741
  • Сборы в мире: + $77 200 000 = $123 490 741 сборы
  • Сборы в России: $5 514 053
  • Зрители: Россия 850.7 тыс.
  • Премьера (мир): 22 мая 2014, ...
  • Премьера (РФ): 19 июня 2014, «Каро-Премьер»
  • Релиз на DVD: 4 сентября 2014, «CP Дистрибуция»
  • Релиз на Blu-Ray: 4 сентября 2014, «CP Дистрибуция»
---
--
  • Качество: BDRip-AVC
  • Формат: MKV
  • Видео кодек: AVC
  • Аудио кодеk: AC3
  • Видео: 1012x546 (1.853:1), 23.976 fps, AVC, 1 771 Kbps
  • Аудио: Аудио #1: AC3, 448 Kbps, 48.0 KHz, 6 ch
    Аудио #2: AC3, 448 Kbps, 48.0 KHz, 6 ch
-

МедиаИнфо

General
Complete name : Smeshannyie.2014.DUAL.BDRip.x264.-HELLYWOOD.mkv
Format : Matroska
File size : 2.19 GiB
Duration : 1h 57mn
Overall bit rate : 2 669 Kbps
Movie name : Blended (2014) - HELLYWOOD
Encoded date : UTC 2014-08-30 10:41:15
Writing application : mkvmerge v5.9.0 ('On The Loose') built on Dec 15 2012 16:39:58
Writing library : libebml v1.3.0 + libmatroska v1.4.0
Video
ID : 1
Format : AVC
Format/Info : Advanced Video Codec
Format profile : High@L4.1
Format settings, CABAC : Yes
Format settings, ReFrames : 11 frames
Muxing mode : Container profile=Unknown@4.1
Codec ID : V_MPEG4/ISO/AVC
Duration : 1h 57mn
Bit rate : 1 771 Kbps
Width : 1 012 pixels
Height : 546 pixels
Display aspect ratio : 1.853
Frame rate : 23.976 fps
Color space : YUV
Chroma subsampling : 4:2:0
Bit depth : 8 bits
Scan type : Progressive
Bits/(Pixel*Frame) : 0.134
Stream size : 1.41 GiB (64%)
Title : potroks
Writing library : x264 core 130 r2273 b3065e6
Encoding settings : cabac=1 / ref=11 / deblock=1:-2:-2 / analyse=0x3:0x133 / me=umh / subme=11 / psy=1 / psy_rd=1.00:0.04 / mixed_ref=1 / me_range=48 / chroma_me=1 / trellis=2 / 8x8dct=1 / cqm=0 / deadzone=21,11 / fast_pskip=0 / chroma_qp_offset=-3 / threads=9 / lookahead_threads=2 / sliced_threads=0 / nr=0 / decimate=0 / interlaced=0 / bluray_compat=0 / constrained_intra=0 / bframes=12 / b_pyramid=2 / b_adapt=2 / b_bias=0 / direct=3 / weightb=1 / open_gop=0 / weightp=2 / keyint=250 / keyint_min=23 / scenecut=40 / intra_refresh=0 / rc_lookahead=60 / rc=2pass / mbtree=0 / bitrate=1771 / ratetol=1.0 / qcomp=0.70 / qpmin=0 / qpmax=69 / qpstep=4 / cplxblur=20.0 / qblur=0.5 / vbv_maxrate=50000 / vbv_bufsize=62500 / nal_hrd=none / ip_ratio=1.35 / pb_ratio=1.25 / aq=1:0.80
Audio #1
ID : 2
Format : AC-3
Format/Info : Audio Coding 3
Mode extension : CM (complete main)
Codec ID : A_AC3
Duration : 1h 57mn
Bit rate mode : Constant
Bit rate : 448 Kbps
Channel(s) : 6 channels
Channel positions : Front: L C R, Side: L R, LFE
Sampling rate : 48.0 KHz
Bit depth : 16 bits
Stream size : 376 MiB (17%)
Title : Dub | DD 5.1 @ 448 kbps - Blu-Ray CEE
Language : Russian
Audio #2
ID : 3
Format : AC-3
Format/Info : Audio Coding 3
Mode extension : CM (complete main)
Codec ID : A_AC3
Duration : 1h 57mn
Bit rate mode : Constant
Bit rate : 448 Kbps
Channel(s) : 6 channels
Channel positions : Front: L C R, Side: L R, LFE
Sampling rate : 48.0 KHz
Bit depth : 16 bits
Stream size : 376 MiB (17%)
Title : Original | DD 5.1 @ 448 kbps
Text #1
ID : 4
Format : UTF-8
Codec ID : S_TEXT/UTF8
Codec ID/Info : UTF-8 Plain Text
Title : форс.
Language : Russian
Text #2
ID : 5
Format : UTF-8
Codec ID : S_TEXT/UTF8
Codec ID/Info : UTF-8 Plain Text
Title : полные
Language : Russian
Text #3
ID : 6
Format : UTF-8
Codec ID : S_TEXT/UTF8
Codec ID/Info : UTF-8 Plain Text
Title : форс.
Language : Ukrainian
Text #4
ID : 7
Format : UTF-8
Codec ID : S_TEXT/UTF8
Codec ID/Info : UTF-8 Plain Text
Title : полные
Language : Ukrainian
Text #5
ID : 8
Format : UTF-8
Codec ID : S_TEXT/UTF8
Codec ID/Info : UTF-8 Plain Text
Title : Full
Text #6
ID : 9
Format : UTF-8
Codec ID : S_TEXT/UTF8
Codec ID/Info : UTF-8 Plain Text
Title : COLORED
Text #7
ID : 10
Format : UTF-8
Codec ID : S_TEXT/UTF8
Codec ID/Info : UTF-8 Plain Text
Title : SDH
Menu
00:00:00.000 : en:1
00:10:30.000 : en:2
00:21:12.000 : en:3
00:32:52.000 : en:4
00:42:19.000 : en:5
00:49:44.000 : en:6
00:58:06.000 : en:7
01:10:38.000 : en:8
01:19:38.000 : en:9
01:33:02.000 : en:10
01:41:17.000 : en:11
01:50:27.000 : en:12

скриншоты

--Источник:

_________________
Показать сообщения:    

Текущее время: Сегодня 00:55

Часовой пояс: GMT



Вы не можете начинать темы
Вы не можете отвечать на сообщения
Вы не можете редактировать свои сообщения
Вы не можете удалять свои сообщения
Вы не можете голосовать в опросах
Вы не можете прикреплять файлы к сообщениям
Вы не можете скачивать файлы
Наши партнеры: интернет магазин Ивановского трикотажа textilla.ru