Важное объявление!
У Нас Все раздачи мультитрекерные, при нуле пиров в релизах, можете смело вставать на закачку!
Статистика раздачи
Размер:     |    Зарегистрирован:     |    Скачан:     |   
Нет
 
     
 
 
Автор Сообщение

HUNTER

Стаж:
5 лет
Сообщений:
67992

Репутация: 101

[+] [-]
Вне форума [Профиль] [ЛС]

СМЕРШ. Летопись героических лет
Год выпуска: 2013
Страна: Россия
Жанр: Документальный
Продолжительность: 00:22:26
Перевод: Не требуется
Режиссер: Сергей Нейлау
Описание: В 2013 г. в Центральном музее Вооруженных Сил прошла уникальная выставка, посвященная 70-летию военной контрразведки «СМЕРШ». Невидимый фронт Великой Отечественной войны. Специально рассекреченные документы, фотографии из архивов ФСБ и ветеранов военной контрразведки, оригинальные образцы униформы, награды, знамена. А также экипировка захваченных агентов, предметы, принадлежавшие руководителям «СМЕРШ», и военные трофеи – личные вещи партийных бонз Третьего рейха. Многие из этих экспонатов демонстрировались впервые.
Качество: IPTVRip
Формат: AVI
Видео: XviD, 720x400, (1.8:1), 1475 kbps avg, 25 fps, 0.20 bit/pixel
Аудио: 48 kHz, MPEG Layer 3, 2 ch, ~192.00 kbps avg

MediaInfo

General
Complete name : C:\Users\Acer\Desktop\СМЕРШ. Летопись героических лет.avi
Format : AVI
Format/Info : Audio Video Interleave
File size : 269 MiB
Duration : 22mn 26s
Overall bit rate : 1 677 Kbps
Writing application : VirtualDubMod 1.5.10.2 (build 2540/release)
Writing library : VirtualDubMod build 2540/release
Video
ID : 0
Format : MPEG-4 Visual
Format profile : Advanced Simple@L5
Format settings, BVOP : 2
Format settings, QPel : No
Format settings, GMC : No warppoints
Format settings, Matrix : Default (MPEG)
Codec ID : XVID
Codec ID/Hint : XviD
Duration : 22mn 26s
Bit rate : 1 475 Kbps
Width : 720 pixels
Height : 400 pixels
Display aspect ratio : 16:9
Frame rate : 25.000 fps
Color space : YUV
Chroma subsampling : 4:2:0
Bit depth : 8 bits
Scan type : Progressive
Compression mode : Lossy
Bits/(Pixel*Frame) : 0.205
Stream size : 237 MiB (88%)
Writing library : XviD 1.2.1 (UTC 2008-12-04)
Audio
ID : 1
Format : MPEG Audio
Format version : Version 1
Format profile : Layer 3
Codec ID : 55
Codec ID/Hint : MP3
Duration : 22mn 26s
Bit rate mode : Constant
Bit rate : 192 Kbps
Channel(s) : 2 channels
Sampling rate : 48.0 KHz
Compression mode : Lossy
Stream size : 30.8 MiB (11%)
Alignment : Aligned on interleaves
Interleave, duration : 40 ms (1.00 video frame)
Interleave, preload duration : 504 ms

Скриншоты


_________________
Показать сообщения:    

Текущее время: Сегодня 10:48

Часовой пояс: GMT



Вы не можете начинать темы
Вы не можете отвечать на сообщения
Вы не можете редактировать свои сообщения
Вы не можете удалять свои сообщения
Вы не можете голосовать в опросах
Вы не можете прикреплять файлы к сообщениям
Вы не можете скачивать файлы