Ивановский Торрент трекер
Яндекс.Погода
 

[Цитировать]
ForZe

Смерть шпионам. Скрытый враг (Смертельная схватка)
Год выпуска: 2012
Производство: Россия, Украина, Star Media & БеларусьФильм
Жанр: военный фильм
Продолжительность: 00:51:00
Режиссёр: Эдуард Пальмов
В ролях: Илья Шакунов, Олег Морозов, Денис Бургазлиев, Елена Дудина, Анна Дюкова, Яков Шамшин, Михаил Васьков, Яна Соболевская, Валерий Афанасьев, Алексей Смолка, Владимир Горянский, Артем Волков, Виталий Салий, Юрий Ильин, Валентин Варецкий, Александр Андриенко, Полина Пальмова
Описание: На территории Польши, оккупированной немцами, действует разведшкола, готовящая диверсантов. У каждого из них свои жизненные обстоятельства, заставившие служить врагам.
Группу из шести человек отправляют в советский тыл, чтобы уничтожить важный стратегический мост в районе Житомира. Через этот мост в направление фронта идет основной поток военной техники и боеприпасов Советской Армии. Уничтожение моста позволит нарушить «кровоснабжение» действующей армии накануне наступления.
А в это время в расположении советских войск работают капитан НКВД Александр Галимов со своей помощницей младшим лейтенантом Любовью Липинской, вместе с которой он пытается предупредить диверсию. Но и среди своих им приходится преодолевать служебную бюрократию, происки тайных и явных недоброжелателей, и разбираться в собственных сердечных симпатиях.
В действиях диверсантов нет слаженности и порядка, слишком разная оказалась у них мотивация и подоплека. Кто-то из их добровольно работает на немцев, кто-то хочет использовать заброску для перехода на сторону Советской Армии, а кто-то решает использовать немцев в своих собственных корыстных интересах. Но, тем не менее, группе диверсантов удается вплотную подойти к выполнению главного задания.
Решающая операция обойдется СМЕРШевцам не только ценой подвига, но и личным выбором и жертвой.
Доп. информация: Реклама отсутствует!
Сэмпл: http://multi-up.com/700160--Качество: SATRip
Формат: AVI
Видео кодек: XviD
Аудио кодек: MP3
Видео: 704x400, 25 fps, XviD, ~1650kbps, 0.234
Аудио: 48 kHz, MPEG Layer 3, 2 ch, 192.00 kbps

MI

Видео
Идентификатор : 0
Формат : MPEG-4 Visual
Профиль формата : Advanced Simple@L5
Параметр BVOP формата : 1
Параметр QPel формата : Нет
Параметр GMC формата : Без точки перехода
Параметр матрицы формата : Default (H.263)
Идентификатор кодека : XVID
Идентификатор кодека/Подсказка : XviD
Битрейт : 1649 Кбит/сек
Ширина : 704 пикс.
Высота : 400 пикс.
Соотношение сторон : 16:9
Частота кадров : 25,000 кадр/сек
Цветовое пространство : YUV
Подвыборка цветности : 4:2:0
Битовая глубина : 8 бит
Тип развёртки : Прогрессивная
Метод сжатия : С потерями
Бит/(Пиксели*Кадры) : 0.234
Размер потока : 239 Мбайт (89%)
Библиотека кодирования : XviD 1.2.1 (UTC 2008-12-04)
Аудио
Идентификатор : 1
Формат : MPEG Audio
Версия формата : Version 1
Профиль формата : Layer 3
Режим : Joint stereo
Расширение режима : MS Stereo
Идентификатор кодека : 55
Идентификатор кодека/Подсказка : MP3
Вид битрейта : Постоянный
Битрейт : 192 Кбит/сек
Каналы : 2 канала
Частота : 48,0 КГц
Метод сжатия : С потерями
Размер потока : 27,8 Мбайт (10%)
Выравнивание : Соединение по промежуткам
Продолжительность промежутка : 40 мс. (1,00 видеокадр)
Время предзагрузки промежутка : 504 ms
Библиотека кодирования : LAME3.98r
Настройки программы : -m j -V 4 -q 2 -lowpass 18.6 -b 192

Скриншоты



Показать сообщения:    

Текущее время: 14-Дек 22:58

Часовой пояс: UTC ± 0


Вы не можете начинать темы
Вы не можете отвечать на сообщения
Вы не можете редактировать свои сообщения
Вы не можете удалять свои сообщения
Вы не можете голосовать в опросах
Вы не можете прикреплять файлы к сообщениям
Вы не можете скачивать файлы

!ВНИМАНИЕ!
Сайт не предоставляет электронные версии произведений, а занимается лишь коллекционированием и каталогизацией ссылок, присылаемых и публикуемых на форуме нашими читателями. Если вы являетесь правообладателем какого-либо представленного материала и не желаете, чтобы ссылка на него находилась в нашем каталоге, свяжитесь с нами, и мы незамедлительно удалим ее. Файлы для обмена на трекере предоставлены пользователями сайта, и администрация не несет ответственности за их содержание. Просьба не заливать файлы, защищенные авторскими правами, а также файлы нелегального содержания!