Важное объявление!
У Нас Все раздачи мультитрекерные, при нуле пиров в релизах, можете смело вставать на закачку!
Статистика раздачи
Размер:     |    Зарегистрирован:     |    Скачан:     |   
Нет
 
     
 
 
Автор Сообщение

HUNTER

Стаж:
5 лет 1 месяц
Сообщений:
68449

Репутация: 101

[+] [-]
Вне форума [Профиль] [ЛС]

Смерть шпионам. Момент истины
Год выпуска: 2013
Страна: Россия, ОАО «ТРК ВС РФ «ЗВЕЗДА»
Жанр: Документальный, история, ВОВ, спецслужбы
Продолжительность: 00:51:44
Режиссер: Сергей Нейлау
Перевод: Не требуется
Русские субтитры: нет
Описание: В 2013 году легендарный "Смерш" отмечает 70-летний юбилей. Он был создан сразу после Сталинградской битвы, ставшей переломной в Великой Отечественной войне. После зимнего разгрома и практически тотального перехода к обороне, враг был вынужден срочно менять тактику. Не только на поле боя. Спецслужбы Германии пробовали новые методы шпионажа, пытались создать свою 5-й колонну в тылу наступающей Красной армии. Перестраиваться приходилось и советским органам военной контрразведки. К весне 1943-го года армейские чекисты набрали достаточно опыта, чтобы преобразовать Управление Особых Отделов в новое ведомство, способное не просто конкурировать с Абвером, а нанести ему сокрушительный урон. Им и стал "Смерш". "Смерть шпионам" - так расшифровывалось грозное название. Свой собственный "Смерш" появился у армии, флота и наркомата внутренних дел. Наш фильм расскажет о каждом из них.
качество: SATRip
формат: AVI
видеокодек: XviD
аудиокодек: MP3
Видео: XviD, 1323 kbps, 704x400, 25.000 fps
Аудио: MP3, 2 ch, 192 kbps, 48.0 kHz

MediaInfo

Complete name : D:\Для раздачи\Смерть шпионам.Момент истины.2013.SATRip.avi
Format : AVI
Format/Info : Audio Video Interleave
File size : 564 MiB
Duration : 51mn 44s
Overall bit rate : 1 525 Kbps
Writing application : VirtualDubMod 1.5.10.2 (build 2540/release)
Writing library : Boilsoft AVI tool build 1/release
Video
ID : 0
Format : MPEG-4 Visual
Format profile : Advanced Simple@L5
Format settings, BVOP : Yes
Format settings, QPel : No
Format settings, GMC : No warppoints
Format settings, Matrix : Default (H.263)
Codec ID : XVID
Codec ID/Hint : XviD
Duration : 51mn 44s
Bit rate : 1 323 Kbps
Width : 704 pixels
Height : 400 pixels
Display aspect ratio : 16:9
Frame rate : 25.000 fps
Color space : YUV
Chroma subsampling : 4:2:0
Bit depth : 8 bits
Scan type : Progressive
Bits/(Pixel*Frame) : 0.188
Stream size : 490 MiB (87%)
Writing library : XviD 1.2.1 (UTC 2008-12-04)
Audio
ID : 1
Format : MPEG Audio
Format version : Version 1
Format profile : Layer 3
Codec ID : 55
Codec ID/Hint : MP3
Duration : 51mn 43s
Bit rate mode : Constant
Bit rate : 192 Kbps
Channel(s) : 2 channels
Sampling rate : 48.0 KHz
Stream size : 71.0 MiB (13%)
Alignment : Aligned on interleaves
Interleave, duration : 40 ms (1.00 video frame)
Interleave, preload duration : 504 ms

Скриншоты



_________________
Показать сообщения:    

Текущее время: Сегодня 17:32

Часовой пояс: GMT



Вы не можете начинать темы
Вы не можете отвечать на сообщения
Вы не можете редактировать свои сообщения
Вы не можете удалять свои сообщения
Вы не можете голосовать в опросах
Вы не можете прикреплять файлы к сообщениям
Вы не можете скачивать файлы