Важное объявление!
У Нас Все раздачи мультитрекерные, при нуле пиров в релизах, можете смело вставать на закачку!
 
Автор Сообщение

димитри37

Стаж:
3 года 10 месяцев
Сообщений:
1237

Репутация: 127

[+] [-]
Вне форума [Профиль] [ЛС]

Смерть супергероя / Death of a Superhero
Страна: Германия
Жанр: Драма
Год выпуска: 2011
Продолжительность: 01:36:58
Перевод: Профессиональный (многоголосый закадровый)
Cубтитры: русские
Оригинальная аудиодорожка: английский-Режиссер: Йен Фитцгиббон / Ian Fitzgibbon-В ролях: Энди Серкис, Томас Броди Сэнгстер, Майкл МакЭлхаттон, Эшлин Лофтус, Шарон Хорган, Нед Деннехи, Джейн Бреннан, Мелла Карон, Ольга Верли, Эмма Элиза Риган-Описание: Дональд Кларк — самый обыкновенный тинейджер. Он любит компьютерные игры, громкую музыку и комиксы. И еще Дональд знает, что не доживет до совершеннолетия. То есть у него осталось совсем немного времени, чтобы успеть попробовать на вкус массу важных вещей: напиться с друзьями, выкурить косяк, лишиться девственности и — поближе познакомиться с самим собой. В фантазиях Дональд видит себя бессмертным супергероем, который противостоит отвратительному суперзлодею с большим шприцем, а роковая любовь супергероя поет на сцене ночного клуба…- -Качество видео: BDRip
Формат видео: AVI
Видео: 704x384 (1.83:1), 24.000 fps, XviD build 64 ~2260 kbps avg, 0.35 bit/pixel
Аудио 1: 48 kHz, AC3 Dolby Digital, 3/2 (L,C,R,l,r) + LFE ch, ~384 kbps RUS
Аудио 2: 48 kHz, AC3 Dolby Digital, 3/2 (L,C,R,l,r) + LFE ch, ~384 kbps ENG-

MediaInfo

Код:
Format                                   : AVI
Format/Info                              : Audio Video Interleave
Format profile                           : OpenDML
File size                                : 2.06 GiB
Duration                                 : 1h 36mn
Overall bit rate                         : 3 036 Kbps
Writing application                      : VirtualDubMod 1.5.10.2 (build 2540/release)
Writing library                          : VirtualDubMod build 2540/release
Video
ID                                       : 0
Format                                   : MPEG-4 Visual
Format profile                           : Advanced Simple@L5
Format settings, BVOP                    : 2
Format settings, QPel                    : No
Format settings, GMC                     : No warppoints
Format settings, Matrix                  : Custom
Codec ID                                 : XVID
Codec ID/Hint                            : XviD
Duration                                 : 1h 36mn
Bit rate                                 : 2 249 Kbps
Width                                    : 704 pixels
Height                                   : 384 pixels
Display aspect ratio                     : 16:9
Frame rate                               : 24.000 fps
Color space                              : YUV
Chroma subsampling                       : 4:2:0
Bit depth                                : 8 bits
Scan type                                : Progressive
Compression mode                         : Lossy
Bits/(Pixel*Frame)                       : 0.347
Stream size                              : 1.52 GiB (74%)
Writing library                          : XviD 64
Audio #1
ID                                       : 1
Format                                   : AC-3
Format/Info                              : Audio Coding 3
Mode extension                           : CM (complete main)
Codec ID                                 : 2000
Duration                                 : 1h 36mn
Bit rate mode                            : Constant
Bit rate                                 : 384 Kbps
Channel(s)                               : 6 channels
Channel positions                        : Front: L C R, Side: L R, LFE
Sampling rate                            : 48.0 KHz
Bit depth                                : 16 bits
Compression mode                         : Lossy
Stream size                              : 266 MiB (13%)
Alignment                                : Split accross interleaves
Interleave, duration                     : 42 ms (1.00 video frame)
Interleave, preload duration             : 500 ms
Audio #2
ID                                       : 2
Format                                   : AC-3
Format/Info                              : Audio Coding 3
Mode extension                           : CM (complete main)
Codec ID                                 : 2000
Duration                                 : 1h 36mn
Bit rate mode                            : Constant
Bit rate                                 : 384 Kbps
Channel(s)                               : 6 channels
Channel positions                        : Front: L C R, Side: L R, LFE
Sampling rate                            : 48.0 KHz
Bit depth                                : 16 bits
Compression mode                         : Lossy
Stream size                              : 266 MiB (13%)
Alignment                                : Split accross interleaves
Interleave, duration                     : 42 ms (1.00 video frame)
Interleave, preload duration             : 500 ms

Скриншоты

-
Показать сообщения:    

Текущее время: Сегодня 03:15

Часовой пояс: GMT



Вы не можете начинать темы
Вы не можете отвечать на сообщения
Вы не можете редактировать свои сообщения
Вы не можете удалять свои сообщения
Вы не можете голосовать в опросах
Вы не можете прикреплять файлы к сообщениям
Вы не можете скачивать файлы
Наши партнеры: интернет магазин Ивановского трикотажа textilla.ru