Ивановский Торрент трекер
Яндекс.Погода
 

[Цитировать]
HUNTER

Смерть зимой / Смертельная зима / Смертельная стужа / Dead of Winter
Страна: США
Жанр: ужасы, триллер, драма
Год выпуска: 1987
Продолжительность: 01:40:39
Перевод 1: Профессиональный (многоголосый закадровый) ТВ3
Перевод 2: Профессиональный (многоголосый закадровый) ОРТ
Перевод 3: Профессиональный (двухголосый закадровый) НТВ+
Перевод 4: Авторский (одноголосый закадровый) А.Михалев
Cубтитры: Английские
Оригинальная аудиодорожка: английский-Режиссер: Артур Пенн / Arthur Penn-В ролях: Мэри Стинберген, Родди МакДауэлл, Ян Рубес, Уильям Расс, Кен Поуг, Уэйн Робсон, Марк Мэлоун, Майкл Коупмен, Сэм Малкин, Памела Моллер-Описание: Молодая нью-йоркская актриса Кэти получает приглашение на пробы, что вполне может стать шансом ее жизни. Она попадает в заснеженный викторианский особняк в Канаде, в котором живут двое мужчин. Начинаются странные вещи - отключается телефон, машина не заводится. Кэти в ловушке, и все превращается в игру интриг и черного кошмара.-Релиз от: by delia-Рип от SbR-Качество видео: BDRip | Sample
Формат видео: MKV
Видео: 1280x694 at 23.976 fps, MPEG-4 AVC, ~10694 kbps avg
Аудио 1: Russian: 48 kHz, AC3, 2/0 (L,R) ch, ~192 kbps avg |Многоголосый закадровый, ТВ3|
Аудио 2: Russian: 48 kHz, AC3, 2/0 (L,R) ch, ~192 kbps avg |Многоголосый закадровый, ОРТ|
Аудио 3: Russian: 48 kHz, AC3, 2/0 (L,R) ch, ~192 kbps avg |Двухголосый закадровый, НТВ+|
Аудио 4: Russian: 48 kHz, AC3, 2/0 (L,R) ch, ~192 kbps avg |Авторский (одноголосый закадровый) А.Михалев|
Аудио 5: English: 48 kHz, FLAC 2.0, ~536 kbps avg-

Дополнительно

Цитата:
  • Сохранены оригинальные чаптеры как на Blu-ray.

MediaInfo

Format                      : Matroska
Format version              : Version 4 / Version 2
File size                   : 8.44 GiB
Duration                    : 1h 40mn
Overall bit rate mode       : Variable
Overall bit rate            : 12.0 Mbps
Encoded date                : UTC 2016-02-10 06:36:59
Writing application         : mkvmerge v8.3.0 ('Over the Horizon') 64bit
Writing library             : libebml v1.3.1 + libmatroska v1.4.2
Attachements                : cover.jpg
Video
ID                          : 1
Format                      : AVC
Format/Info                 : Advanced Video Codec
Format profile              : High@L4.1
Format settings, CABAC      : Yes
Format settings, ReFrames   : 9 frames
Codec ID                    : V_MPEG4/ISO/AVC
Duration                    : 1h 40mn
Bit rate                    : 10.7 Mbps
Width                       : 1 280 pixels
Height                      : 694 pixels
Display aspect ratio        : 1.85:1
Frame rate mode             : Constant
Frame rate                  : 23.976 (24000/1001) fps
Color space                 : YUV
Chroma subsampling          : 4:2:0
Bit depth                   : 8 bits
Scan type                   : Progressive
Bits/(Pixel*Frame)          : 0.502
Stream size                 : 7.52 GiB (89%)
Writing library             : x264 core 148 r2638+53 bb29004 t_mod_Custom [8-bit@all X86_64]
Encoding settings           : cabac=1 / ref=9 / deblock=1:-3:-3 / analyse=0x3:0x133 / me=umh / subme=11 / psy=1 / fade_compensate=0.00 / psy_rd=1.10:0.05 / mixed_ref=1 / me_range=24 / chroma_me=1 / trellis=2 / 8x8dct=1 / cqm=0 / deadzone=21,11 / fast_pskip=0 / chroma_qp_offset=-3 / threads=6 / lookahead_threads=1 / sliced_threads=0 / nr=0 / decimate=1 / interlaced=0 / bluray_compat=0 / constrained_intra=0 / fgo=0 / bframes=11 / b_pyramid=2 / b_adapt=2 / b_bias=0 / direct=3 / weightb=1 / open_gop=0 / weightp=2 / keyint=250 / keyint_min=23 / scenecut=40 / intra_refresh=0 / rc=2pass / mbtree=0 / bitrate=10700 / ratetol=1.0 / qcomp=0.70 / qpmin=0:0:0 / qpmax=69:69:69 / qpstep=4 / cplxblur=20.0 / qblur=0.5 / ip_ratio=1.30 / pb_ratio=1.20 / aq=1:0.65 / aq-sensitivity=10.00 / aq-factor=1.00:1.00:1.00 / aq2=0 / aq3=0
Language                    : English
Default                     : Yes
Forced                      : No
Color range                 : Limited
Matrix coefficients         : BT.709
Audio #1
ID                          : 2
Format                      : AC-3
Format/Info                 : Audio Coding 3
Mode extension              : CM (complete main)
Format settings, Endianness : Big
Codec ID                    : A_AC3
Duration                    : 1h 40mn
Bit rate mode               : Constant
Bit rate                    : 192 Kbps
Channel(s)                  : 2 channels
Channel positions           : Front: L R
Sampling rate               : 48.0 KHz
Frame rate                  : 31.250 fps (1536 spf)
Compression mode            : Lossy
Stream size                 : 138 MiB (2%)
Title                       : Многоголосый закадровый, ТВ3
Language                    : Russian
Default                     : Yes
Forced                      : No
Audio #2
ID                          : 3
Format                      : AC-3
Format/Info                 : Audio Coding 3
Mode extension              : CM (complete main)
Format settings, Endianness : Big
Codec ID                    : A_AC3
Duration                    : 1h 40mn
Bit rate mode               : Constant
Bit rate                    : 192 Kbps
Channel(s)                  : 2 channels
Channel positions           : Front: L R
Sampling rate               : 48.0 KHz
Frame rate                  : 31.250 fps (1536 spf)
Compression mode            : Lossy
Stream size                 : 138 MiB (2%)
Title                       : Многоголосый закадровый, ОРТ
Language                    : Russian
Default                     : No
Forced                      : No
Audio #3
ID                          : 4
Format                      : AC-3
Format/Info                 : Audio Coding 3
Mode extension              : CM (complete main)
Format settings, Endianness : Big
Codec ID                    : A_AC3
Duration                    : 1h 40mn
Bit rate mode               : Constant
Bit rate                    : 192 Kbps
Channel(s)                  : 2 channels
Channel positions           : Front: L R
Sampling rate               : 48.0 KHz
Frame rate                  : 31.250 fps (1536 spf)
Compression mode            : Lossy
Stream size                 : 138 MiB (2%)
Title                       : Двухголосый закадровый, НТВ+
Language                    : Russian
Default                     : No
Forced                      : No
Audio #4
ID                          : 5
Format                      : AC-3
Format/Info                 : Audio Coding 3
Mode extension              : CM (complete main)
Format settings, Endianness : Big
Codec ID                    : A_AC3
Duration                    : 1h 40mn
Bit rate mode               : Constant
Bit rate                    : 192 Kbps
Channel(s)                  : 2 channels
Channel positions           : Front: L R
Sampling rate               : 48.0 KHz
Frame rate                  : 31.250 fps (1536 spf)
Compression mode            : Lossy
Stream size                 : 138 MiB (2%)
Title                       : Одноголосый закадровый, А.Михалев
Language                    : Russian
Default                     : No
Forced                      : No
Audio #5
ID                          : 6
Format                      : FLAC
Format/Info                 : Free Lossless Audio Codec
Codec ID                    : A_FLAC
Duration                    : 1h 40mn
Bit rate mode               : Variable
Bit rate                    : 536 Kbps
Channel(s)                  : 2 channels
Channel positions           : Front: L R
Sampling rate               : 48.0 KHz
Frame rate                  : 11.719 fps (4096 spf)
Bit depth                   : 16 bits
Stream size                 : 386 MiB (4%)
Title                       : 536 Kbps
Writing library             : libFLAC 1.2.1 (UTC 2007-09-17)
Language                    : English
Default                     : No
Forced                      : No
Text
ID                          : 7
Format                      : UTF-8
Codec ID                    : S_TEXT/UTF8
Codec ID/Info               : UTF-8 Plain Text
Duration                    : 1h 33mn
Bit rate                    : 37 bps
Count of elements           : 1136
Stream size                 : 25.6 KiB (0%)
Language                    : English
Default                     : No
Forced                      : No
Menu
00:00:00.000                : en:00:00:00.000
00:07:43.087                : en:00:07:43.087
00:17:26.962                : en:00:17:26.962
00:27:50.752                : en:00:27:50.752
00:39:13.934                : en:00:39:13.934
00:48:46.506                : en:00:48:46.506
00:58:45.521                : en:00:58:45.521
01:07:02.435                : en:01:07:02.435
01:14:01.562                : en:01:14:01.562
01:21:03.149                : en:01:21:03.149
01:30:27.505                : en:01:30:27.505
01:38:06.881                : en:01:38:06.881

Скриншоты



Показать сообщения:    

Текущее время: 16-Дек 07:30

Часовой пояс: UTC ± 0


Вы не можете начинать темы
Вы не можете отвечать на сообщения
Вы не можете редактировать свои сообщения
Вы не можете удалять свои сообщения
Вы не можете голосовать в опросах
Вы не можете прикреплять файлы к сообщениям
Вы не можете скачивать файлы

!ВНИМАНИЕ!
Сайт не предоставляет электронные версии произведений, а занимается лишь коллекционированием и каталогизацией ссылок, присылаемых и публикуемых на форуме нашими читателями. Если вы являетесь правообладателем какого-либо представленного материала и не желаете, чтобы ссылка на него находилась в нашем каталоге, свяжитесь с нами, и мы незамедлительно удалим ее. Файлы для обмена на трекере предоставлены пользователями сайта, и администрация не несет ответственности за их содержание. Просьба не заливать файлы, защищенные авторскими правами, а также файлы нелегального содержания!