Ивановский Торрент трекер
Яндекс.Погода
 

[Цитировать]
HUNTER

Смертельный спуск / Deadly Descent-
  • Год выпуска: 2012
  • Страна: США
  • Жанр: боевик
  • Продолжительность: 01:24:54
  • Перевод: Профессиональное (многоголосое) [SyFy]
-
  • Режиссер: Марко Макилааксо
  • Сценарий: Натан Аткинс
  • Продюсер: Джеффри Бич, Джон Каппилла, Филлип Дж. Рот, ...
  • Оператор: Лоренцо Сенаторе
  • Композитор: Кристофер Холден
  • Художник: Кес Бонне
  • Монтаж: Джон Куинн
- -
  • Кошмарный хищник атакует группу участников поисково-спасательной операции в отдаленных заснеженных горах.
--
    -
      --
      • Рейтинг:
      --
      • Качество: HDTVRip
      • Формат: AVI
      • Видео кодек: XviD
      • Аудио кодеk: AC3
      • Видео: 720x400 (16:9), 23.976 fps, XviD, 1 716 Kbps
      • Аудио: Russian: AC3, 192 Kbps, 48.0 KHz, 2 ch
        English: AC3, 384 Kbps, 48.0 KHz, 6 ch
      --

      МедиаИнфо

      Код: copyText_writeLink('this.parentNode.parentNode.nextSibling.nextSibling'); General
      Complete name : Abominable.Snowman.2012.avi
      Format : AVI
      Format/Info : Audio Video Interleave
      File size : 1.37 GiB
      Duration : 1h 24mn
      Overall bit rate : 2 306 Kbps
      Writing application : VirtualDubModRus 1.5.10.1 (build 2439/release)
      Writing library : VirtualDubMod build 2439/release
      Video
      ID : 0
      Format : MPEG-4 Visual
      Format profile : Advanced Simple@L5
      Format settings, BVOP : Yes
      Format settings, QPel : No
      Format settings, GMC : No warppoints
      Format settings, Matrix : Default (MPEG)
      Codec ID : XVID
      Codec ID/Hint : XviD
      Duration : 1h 24mn
      Bit rate : 1 716 Kbps
      Width : 720 pixels
      Height : 400 pixels
      Display aspect ratio : 16:9
      Frame rate : 23.976 fps
      Color space : YUV
      Chroma subsampling : 4:2:0
      Bit depth : 8 bits
      Scan type : Progressive
      Bits/(Pixel*Frame) : 0.248
      Stream size : 1.02 GiB (74%)
      Writing library : XviD 63
      Audio #1
      ID : 1
      Format : AC-3
      Format/Info : Audio Coding 3
      Mode extension : CM (complete main)
      Codec ID : 2000
      Duration : 1h 24mn
      Bit rate mode : Constant
      Bit rate : 192 Kbps
      Channel(s) : 2 channels
      Channel positions : Front: L R
      Sampling rate : 48.0 KHz
      Bit depth : 16 bits
      Stream size : 117 MiB (8%)
      Alignment : Split accross interleaves
      Interleave, duration : 42 ms (1.00 video frame)
      Interleave, preload duration : 500 ms
      Audio #2
      ID : 2
      Format : AC-3
      Format/Info : Audio Coding 3
      Mode extension : CM (complete main)
      Codec ID : 2000
      Duration : 1h 24mn
      Bit rate mode : Constant
      Bit rate : 384 Kbps
      Channel(s) : 6 channels
      Channel positions : Front: L C R, Side: L R, LFE
      Sampling rate : 48.0 KHz
      Bit depth : 16 bits
      Stream size : 233 MiB (17%)
      Alignment : Split accross interleaves
      Interleave, duration : 42 ms (1.00 video frame)
      Interleave, preload duration : 500 ms
      - -© Оформление by www.rustorka.com- -Не уходите с раздачи, помогайте раздавать! Скачал сам, помоги скачать другим раздавая скачанное. Помните, что файлы раздачи размещены у других пользователей, таких же качающих или уже скачавших как и Вы, поэтому если кто-то удалит файлы и торрент-файл из клиента, то велика возможность того, что материалов раздачи не останется ни у кого и другие, такие же участники сети не смогут их скачать. Давайте начинать перемены с себя.-
      0 человек читают эту тему: 0 пользователей, 0 скрытых пользователей, 0 гостей

      Показать сообщения:    

      Текущее время: 24-Авг 07:56

      Часовой пояс: UTC - 1


      Вы не можете начинать темы
      Вы не можете отвечать на сообщения
      Вы не можете редактировать свои сообщения
      Вы не можете удалять свои сообщения
      Вы не можете голосовать в опросах
      Вы не можете прикреплять файлы к сообщениям
      Вы не можете скачивать файлы

      !ВНИМАНИЕ!
      Сайт не предоставляет электронные версии произведений, а занимается лишь коллекционированием и каталогизацией ссылок, присылаемых и публикуемых на форуме нашими читателями. Если вы являетесь правообладателем какого-либо представленного материала и не желаете, чтобы ссылка на него находилась в нашем каталоге, свяжитесь с нами, и мы незамедлительно удалим ее. Файлы для обмена на трекере предоставлены пользователями сайта, и администрация не несет ответственности за их содержание. Просьба не заливать файлы, защищенные авторскими правами, а также файлы нелегального содержания!