Ивановский Торрент трекер
Яндекс.Погода
 

[Цитировать]
HUNTER

Смертельные преследователи / The Deadly Trackers
Страна: США
Жанр: драма, вестерн
Год выпуска: 1973
Продолжительность: 01:45:25
Перевод: Профессиональный (многоголосый закадровый) Россия
Cубтитры: английские (Full, SDH)
Оригинальная аудиодорожка: английский-Режиссер: Сэмюэл Фуллер / Samuel Fuller, Барри Шир / Barry Shear-В ролях: Ричард Харрис, Род Тейлор, Аль Леттьери, Невилл Брэнд, Уильям Смит, Пол Бенжамин, Педро Армендариз мл., Айсела Вега, Келли Жан Питерс, Уильям Брайант-Описание: Чтобы отомстить за убийство жены и сына, шериф маленького техасского городка выслеживает грабителя банка и его банду, ушедших от погони в Мексику...-Релиз:
by delia-Качество видео: BDRip | Рип от SbR
Формат видео: MKV
Видео: 1280x720 at 23.976 fps, x264@L4.1, ~9704 kbps avg
Аудио: Russian: 48 kHz, AC3, 2/0 (L,R) ch, ~192 kbps avg |Многоголосый закадровый, ТК Россия|
Аудио: English: 48 kHz, FLAC, 2.0 ch, ~629 kbps avg-Скачать сэмпл-Цитата:
  • Сохранены оригинальные чаптеры как на Blu-ray.

MediaInfo

Формат                                   : Matroska
Версия формата                           : Version 4 / Version 2
Размер файла                             : 7,75 Гбайт
Продолжительность                        : 1 ч. 45 м.
Режим общего битрейта                    : Переменный
Общий поток                              : 10,5 Мбит/сек
Дата кодирования                         : UTC 2016-10-12 10:08:06
Программа кодирования                    : mkvmerge v9.4.2 ('So High') 64bit
Библиотека кодирования                   : libebml v1.3.4 + libmatroska v1.4.5
Обложка                                  : Yes
Attachments                              : cover.jpg
Видео
Идентификатор                            : 1
Формат                                   : AVC
Формат/Информация                        : Advanced Video Codec
Профиль формата                          : High@L4.1
Параметр CABAC формата                   : Да
Параметр ReFrames формата                : 9 кадров
Идентификатор кодека                     : V_MPEG4/ISO/AVC
Продолжительность                        : 1 ч. 45 м.
Битрейт                                  : 9704 Кбит/сек
Ширина                                   : 1280 пикселей
Высота                                   : 720 пикселей
Соотношение сторон                       : 16:9
Режим частоты кадров                     : Постоянный
Частота кадров                           : 23,976 (23976/1000) кадра/сек
Цветовое пространство                    : YUV
Субдискретизация насыщенности            : 4:2:0
Битовая глубина                          : 8 бит
Тип развёртки                            : Прогрессивная
Бит/(Пиксели*Кадры)                      : 0.439
Размер потока                            : 7,15 Гбайт (92%)
Библиотека кодирования                   : x264 core 148 r2721kMod 72d53ab
Настройки программы                      : cabac=1 / ref=9 / deblock=1:-3:-3 / analyse=0x3:0x133 / me=umh / subme=10 / psy=1 / fade_compensate=0.00 / psy_rd=1.00:0.05 / mixed_ref=1 / me_range=24 / chroma_me=1 / trellis=2 / 8x8dct=1 / cqm=0 / deadzone=21,11 / fast_pskip=0 / chroma_qp_offset=-3 / threads=6 / lookahead_threads=1 / sliced_threads=0 / nr=0 / decimate=1 / interlaced=0 / bluray_compat=0 / constrained_intra=0 / fgo=0 / bframes=8 / b_pyramid=2 / b_adapt=2 / b_bias=0 / direct=3 / weightb=1 / open_gop=0 / weightp=2 / keyint=250 / keyint_min=23 / scenecut=40 / intra_refresh=0 / rc_lookahead=60 / rc=crf / mbtree=0 / crf=18.0000 / qcomp=0.55 / qpmin=0 / qpmax=69 / qpstep=4 / vbv_maxrate=62500 / vbv_bufsize=78125 / crf_max=0.0 / nal_hrd=none / filler=0 / ip_ratio=1.35 / pb_ratio=1.25 / aq=1:0.70
Язык                                     : English
Default                                  : Да
Forced                                   : Нет
Цветовой диапазон                        : Limited
Основные цвета                           : BT.709
Характеристики трансфера                 : BT.709
Коэффициенты матрицы                     : BT.709
Аудио #1
Идентификатор                            : 2
Формат                                   : AC-3
Формат/Информация                        : Audio Coding 3
Расширение режима                        : CM (complete main)
Параметр Endianness формата              : Big
Идентификатор кодека                     : A_AC3
Продолжительность                        : 1 ч. 45 м.
Вид битрейта                             : Постоянный
Битрейт                                  : 192 Кбит/сек
Каналы                                   : 2 канала
Расположение каналов                     : Front: L R
Частота                                  : 48,0 КГц
Частота кадров                           : 31,250 кадров/сек (1536 spf)
Метод сжатия                             : С потерями
Размер потока                            : 145 Мбайт (2%)
Заголовок                                : Многоголосый закадровый, ТК Россия
Язык                                     : Russian
Default                                  : Да
Forced                                   : Нет
Аудио #2
Идентификатор                            : 3
Формат                                   : FLAC
Формат/Информация                        : Free Lossless Audio Codec
Идентификатор кодека                     : A_FLAC
Продолжительность                        : 1 ч. 45 м.
Вид битрейта                             : Переменный
Битрейт                                  : 629 Кбит/сек
Каналы                                   : 2 канала
Расположение каналов                     : Front: L R
Частота                                  : 48,0 КГц
Частота кадров                           : 11,719 кадров/сек (4096 spf)
Битовая глубина                          : 24 бит
Размер потока                            : 474 Мбайт (6%)
Библиотека кодирования                   : libFLAC 1.2.1 (UTC 2007-09-17)
Язык                                     : English
Default                                  : Нет
Forced                                   : Нет
Текст #1
Идентификатор                            : 4
Формат                                   : UTF-8
Идентификатор кодека                     : S_TEXT/UTF8
Идентификатор кодека/Информация          : UTF-8 Plain Text
Продолжительность                        : 1 ч. 43 м.
Битрейт                                  : 33 бит/сек
Count of elements                        : 813
Размер потока                            : 25,1 Кбайт (0%)
Язык                                     : English
Default                                  : Нет
Forced                                   : Нет
Текст #2
Идентификатор                            : 5
Формат                                   : UTF-8
Идентификатор кодека                     : S_TEXT/UTF8
Идентификатор кодека/Информация          : UTF-8 Plain Text
Продолжительность                        : 1 ч. 45 м.
Битрейт                                  : 37 бит/сек
Count of elements                        : 962
Размер потока                            : 28,6 Кбайт (0%)
Заголовок                                : SDH
Язык                                     : English
Default                                  : Нет
Forced                                   : Нет
Меню
00:00:00.000                             : en:00:00:00.000
00:09:52.341                             : en:00:09:52.341
00:19:25.956                             : en:00:19:25.956
00:32:49.509                             : en:00:32:49.509
00:40:43.399                             : en:00:40:43.399
00:51:32.130                             : en:00:51:32.130
01:02:30.955                             : en:01:02:30.955
01:11:19.566                             : en:01:11:19.566
01:23:00.266                             : en:01:23:00.266
01:31:50.046                             : en:01:31:50.046
01:44:06.031                             : en:01:44:06.031

Скриншоты

Показать сообщения:    

Текущее время: 23-Окт 03:27

Часовой пояс: UTC - 1


Вы не можете начинать темы
Вы не можете отвечать на сообщения
Вы не можете редактировать свои сообщения
Вы не можете удалять свои сообщения
Вы не можете голосовать в опросах
Вы не можете прикреплять файлы к сообщениям
Вы не можете скачивать файлы

!ВНИМАНИЕ!
Сайт не предоставляет электронные версии произведений, а занимается лишь коллекционированием и каталогизацией ссылок, присылаемых и публикуемых на форуме нашими читателями. Если вы являетесь правообладателем какого-либо представленного материала и не желаете, чтобы ссылка на него находилась в нашем каталоге, свяжитесь с нами, и мы незамедлительно удалим ее. Файлы для обмена на трекере предоставлены пользователями сайта, и администрация не несет ответственности за их содержание. Просьба не заливать файлы, защищенные авторскими правами, а также файлы нелегального содержания!