Ивановский Торрент трекер
Яндекс.Погода
 

[Цитировать]
HUNTER

Смертельные мысли / Mortal Thoughts
Страна: США
Жанр: Триллер, детектив
Год выпуска: 1991
Продолжительность: 01:39:18
Перевод: Профессиональный (многоголосый закадровый)
Cубтитры: нет
Оригинальная аудиодорожка: нет
Режиссер: Алан Рудольф / Alan Rudolph
В ролях: Деми Мур, Гленн Хедли, Брюс Уиллис, Джон Пэнкоу, Харви Кейтель, Билли Нил, Фрэнк Винсент, Карен Шалло, Кристал Филд, Марианн Леоне
Описание: Синтия и Джойс — лучшие подруги, и судьба подвергает их дружбу страшному испытанию. Неуравновешенный муж Джойс найден мертвым. Много раз несчастная женщина обещала убить его.
И накануне гибели между ними вспыхнула очередная ссора. Синтия прекрасно знала мрачную историю их взаимоотношений, но у следователя не сказала ни слова правды. Это была ложь во спасение. Но сможет ли она спасти Синтию от страшной истины?
Сэмпл: http://multi-up.com/952968
Тип релиза: HDTV 1080i
Контейнер: TS
Видео: AVC, 1920x1080 (16/9), 25.000 fps, 11.9 Mbps (0.230 bit/pixel)
Аудио: MP2, 48.0 KHz, 2 ch, 192 Kbps, CBR (Russian)

MediaInfo

Общее
Идентификатор : 3 (0x3)
Полное имя : H:\БОЛЬШОЕ видео\ТВ записи\Смертельные мысли.TS
Формат : MPEG-TS
Размер файла : 9,05 Гбайт
Продолжительность : 1 ч. 39 м.
Режим общего битрейта : Переменный
Общий поток : 13,0 Мбит/сек
Видео
Идентификатор : 2141 (0x85D)
Идентификатор меню : 21004 (0x520C)
Формат : AVC
Формат/Информация : Advanced Video Codec
Профиль формата : Main@L4.0
Параметр CABAC формата : Да
Параметр ReFrames формата : 3 кадра
Идентификатор кодека : 27
Продолжительность : 1 ч. 39 м.
Битрейт : 12,2 Мбит/сек
Ширина : 1920 пикселей
Высота : 1080 пикселей
Соотношение сторон : 16:9
Частота кадров : 25,000 кадров/сек
Стандарт вещания : Component
Цветовое пространство : YUV
Субдискретизация насыщенности : 4:2:0
Битовая глубина : 8 бит
Тип развёртки : Чересстрочная
Порядок развёртки : Верхнее поле первое
Бит/(Пиксели*Кадры) : 0.235
Размер потока : 8,47 Гбайт (94%)
Основные цвета : BT.709
Характеристики трансфера : BT.709
Коэффициенты матрицы : BT.709
Аудио
Идентификатор : 2142 (0x85E)
Идентификатор меню : 21004 (0x520C)
Формат : MPEG Audio
Версия формата : Version 1
Профиль формата : Layer 2
Идентификатор кодека : 4
Продолжительность : 1 ч. 39 м.
Вид битрейта : Постоянный
Битрейт : 192 Кбит/сек
Каналы : 2 канала
Частота : 48,0 КГц
Метод сжатия : С потерями
Задержка видео : -1 мс.
Размер потока : 136 Мбайт (1%)
Язык : Russian

Скриншоты


Показать сообщения:    

Текущее время: 23-Окт 10:54

Часовой пояс: UTC - 1


Вы не можете начинать темы
Вы не можете отвечать на сообщения
Вы не можете редактировать свои сообщения
Вы не можете удалять свои сообщения
Вы не можете голосовать в опросах
Вы не можете прикреплять файлы к сообщениям
Вы не можете скачивать файлы

!ВНИМАНИЕ!
Сайт не предоставляет электронные версии произведений, а занимается лишь коллекционированием и каталогизацией ссылок, присылаемых и публикуемых на форуме нашими читателями. Если вы являетесь правообладателем какого-либо представленного материала и не желаете, чтобы ссылка на него находилась в нашем каталоге, свяжитесь с нами, и мы незамедлительно удалим ее. Файлы для обмена на трекере предоставлены пользователями сайта, и администрация не несет ответственности за их содержание. Просьба не заливать файлы, защищенные авторскими правами, а также файлы нелегального содержания!