Ивановский Торрент трекер
Яндекс.Погода
 

[Цитировать]
HUNTER

Смертельное падение / Deadfall
Страна: Великобритания
Жанр: драма, криминал
Год выпуска: 1968
Продолжительность: 01:54:51
Перевод: Профессиональный (многоголосый закадровый)
Cубтитры: нет
Оригинальная аудиодорожка: нет
Режиссер: Брайан Форбс / Bryan Forbes
В ролях: Майкл Кейн, Джованна Ралли, Эрик Портман, Нанетт Ньюман, Дэвид Бак, Леонард Росситер, Джеральдин Шерман, Карлос Пьер, Владек Шейбал, Рената Тарраго, Эмилио Родригес, Кармен Дэне
Описание: Основательно изучив досье на гениального вора Генри Кларка, Ричард и Фей Моро предлагают ему сотрудничество. Супруги намерены провернуть искусную аферу — ограбить особняк известного миллионера Салинаса, но без помощи Генри им не обойтись. Взвесив все «за» и «против» Кларк принимает предложение, не предполагая, к каким последствиям приведет его решение…
Доп. информация: Наполнение кадра больше, чем на DVD http://screenshotcomparison.com/comparison/90173
Сэмпл: http://multi-up.com/996515
Тип релиза: HDTV 1080i
Контейнер: TS
Видео: AVC, 1920x1080 (16/9), 25.000 fps, 11.6 Mbps (0.223 bit/pixel)
Аудио: MP2, 48.0 KHz, 2 ch, 192 Kbps, CBR (Russian)

MediaInfo

Общее
Идентификатор : 3 (0x3)
Полное имя : K:\Смертельное падение.ts
Формат : MPEG-TS
Размер файла : 10,1 Гбайт
Продолжительность : 1 ч. 54 м.
Режим общего битрейта : Переменный
Общий поток : 12,6 Мбит/сек
Видео
Идентификатор : 2141 (0x85D)
Идентификатор меню : 21004 (0x520C)
Формат : AVC
Формат/Информация : Advanced Video Codec
Профиль формата : Main@L4.0
Параметр CABAC формата : Да
Параметр ReFrames формата : 3 кадра
Идентификатор кодека : 27
Продолжительность : 1 ч. 54 м.
Битрейт : 11,8 Мбит/сек
Ширина : 1920 пикселей
Высота : 1080 пикселей
Соотношение сторон : 16:9
Частота кадров : 25,000 кадров/сек
Стандарт вещания : Component
Цветовое пространство : YUV
Субдискретизация насыщенности : 4:2:0
Битовая глубина : 8 бит
Тип развёртки : Чересстрочная
Порядок развёртки : Верхнее поле первое
Бит/(Пиксели*Кадры) : 0.228
Размер потока : 9,47 Гбайт (94%)
Основные цвета : BT.709
Характеристики трансфера : BT.709
Коэффициенты матрицы : BT.709
Аудио
Идентификатор : 2142 (0x85E)
Идентификатор меню : 21004 (0x520C)
Формат : MPEG Audio
Версия формата : Version 1
Профиль формата : Layer 2
Идентификатор кодека : 4
Продолжительность : 1 ч. 54 м.
Вид битрейта : Постоянный
Битрейт : 192 Кбит/сек
Каналы : 2 канала
Частота : 48,0 КГц
Метод сжатия : С потерями
Задержка видео : -18 мс.
Размер потока : 158 Мбайт (2%)
Язык : Russian

Скриншоты



Показать сообщения:    

Текущее время: 11-Дек 06:09

Часовой пояс: UTC ± 0


Вы не можете начинать темы
Вы не можете отвечать на сообщения
Вы не можете редактировать свои сообщения
Вы не можете удалять свои сообщения
Вы не можете голосовать в опросах
Вы не можете прикреплять файлы к сообщениям
Вы не можете скачивать файлы

!ВНИМАНИЕ!
Сайт не предоставляет электронные версии произведений, а занимается лишь коллекционированием и каталогизацией ссылок, присылаемых и публикуемых на форуме нашими читателями. Если вы являетесь правообладателем какого-либо представленного материала и не желаете, чтобы ссылка на него находилась в нашем каталоге, свяжитесь с нами, и мы незамедлительно удалим ее. Файлы для обмена на трекере предоставлены пользователями сайта, и администрация не несет ответственности за их содержание. Просьба не заливать файлы, защищенные авторскими правами, а также файлы нелегального содержания!