Ивановский Торрент трекер
Яндекс.Погода
 

[Цитировать]
HUNTER

Смертельная битва: Наследие / Mortal Kombat: Legacy-Год выпуска: 2011
Страна: США, Канада
Жанр: фэнтези, боевик, триллер, криминал
Продолжительность: ~10 мин.
Кол-во серий/сезонов: 9 серий / 1 сезон
Перевод: Двухголосый, закадровый (П.Гланц и И.Королёва)
Субтитры: Russian (Л.Векшин), English-В ролях: Джонсон Фэн, Даррен Шахлави, Эндрю Чин, Йен Энтони Дэйл, Алекс Паунович, Майкл Джей Уайт, Саманта Джо, Кеван Охтци, Джери Райан, Морисса Танчароэн
Режиссёр: Кевин Танчароэн-Описание: Это сериал из девяти короткометражных фильмов, рассказывающих о том, как каждый из героев попал на турнир «Смертельная битва».-Качество: BDRip 1080p
Формат: MKV
Видео кодек: MPEG4/AVC
Аудио кодек: AC3
Видео: ~1920x820 (2.35:1) / 23,976 fps / ~4300 kbps avg. / AVC (High@L4.1)(CABAC / 4 Ref Frames)
Аудио #1: Russian 5.1 / 48 kHz / AC3 / 3/2 (L,C,R,l,r) + LFE ch / 640 kbps / 16-bit
Аудио #2: English 5.1 / 48 kHz / AC3 / 3/2 (L,C,R,l,r) + LFE ch / 640 kbps / 16-bit
Субтитры: Russian (Л.Векшин), English-

Список серий

01: Jax, Sonya and Kano (1)
02: Jax, Sonya and Kano (2)
03: Johnny Cage
04: Kitana & Mileena (1)
05: Kitana & Mileena (2)
06: Raiden
07: Scorpion and Sub Zero (1)
08: Scorpion and Sub Zero (2)
09: Cyrax and Sektor

MediaInfo

Format : Matroska
Format version : Version 4 / Version 2
File size : 581 MiB
Duration : 12mn 18s
Overall bit rate mode : Variable
Overall bit rate : 6 597 Kbps
Encoded date : UTC 2013-09-17 17:25:07
Writing application : mkvmerge v6.2.0 ('Promised Land') built on Apr 28 2013 12:22:01
Writing library : libebml v1.3.0 + libmatroska v1.4.0
Video
ID : 1
Format : AVC
Format/Info : Advanced Video Codec
Format profile : High@L4.1
Format settings, CABAC : Yes
Format settings, ReFrames : 4 frames
Codec ID : V_MPEG4/ISO/AVC
Duration : 12mn 18s
Bit rate mode : Variable
Bit rate : 5 185 Kbps
Maximum bit rate : 14.0 Mbps
Width : 1 918 pixels
Height : 820 pixels
Display aspect ratio : 2.35:1
Frame rate mode : Constant
Frame rate : 23.976 fps
Color space : YUV
Chroma subsampling : 4:2:0
Bit depth : 8 bits
Scan type : Progressive
Bits/(Pixel*Frame) : 0.138
Stream size : 457 MiB (79%)
Title : English / 5314 kbps / 1918*820 (2.35:1) / 23,976 fps / AVC (High@L4.1)(CABAC / 4 Ref Frames)
Writing library : x264 core 133 r2334 a3ac64b
Encoding settings : cabac=1 / ref=4 / deblock=1:-1:-1 / analyse=0x3:0x113 / me=umh / subme=8 / psy=1 / psy_rd=1.00:0.15 / mixed_ref=1 / me_range=16 / chroma_me=1 / trellis=1 / 8x8dct=1 / cqm=0 / deadzone=21,11 / fast_pskip=1 / chroma_qp_offset=-3 / threads=6 / lookahead_threads=1 / sliced_threads=0 / slices=4 / nr=0 / decimate=1 / interlaced=0 / bluray_compat=0 / constrained_intra=0 / bframes=3 / b_pyramid=2 / b_adapt=2 / b_bias=0 / direct=3 / weightb=1 / open_gop=1 / weightp=2 / keyint=240 / keyint_min=23 / scenecut=40 / intra_refresh=0 / rc_lookahead=50 / rc=crf / mbtree=1 / crf=18.0 / qcomp=0.60 / qpmin=0 / qpmax=51 / qpstep=4 / vbv_maxrate=14000 / vbv_bufsize=14000 / crf_max=0.0 / nal_hrd=vbr / ip_ratio=1.40 / aq=1:1.00
Language : English
Default : Yes
Forced : No
Audio #1
ID : 2
Format : AC-3
Format/Info : Audio Coding 3
Mode extension : CM (complete main)
Format settings, Endianness : Big
Codec ID : A_AC3
Duration : 12mn 18s
Bit rate mode : Constant
Bit rate : 640 Kbps
Channel count : 6 channels
Channel positions : Front: L C R, Side: L R, LFE
Sampling rate : 48.0 KHz
Bit depth : 16 bits
Compression mode : Lossy
Stream size : 56.4 MiB (10%)
Title : Russian 5.1 / 48 kHz / AC3 / 3/2 (L,C,R,l,r) + LFE ch / 640 kbps / 16-bit |Двухголосый закадровый, П.Гланц и И.Королёва|
Language : Russian
Default : Yes
Forced : No
Audio #2
ID : 3
Format : AC-3
Format/Info : Audio Coding 3
Mode extension : CM (complete main)
Format settings, Endianness : Big
Codec ID : A_AC3
Duration : 12mn 18s
Bit rate mode : Constant
Bit rate : 640 Kbps
Channel count : 6 channels
Channel positions : Front: L C R, Side: L R, LFE
Sampling rate : 48.0 KHz
Bit depth : 16 bits
Compression mode : Lossy
Stream size : 56.4 MiB (10%)
Title : English 5.1 / 48 kHz / AC3 / 3/2 (L,C,R,l,r) + LFE ch / 640 kbps / 16-bit |English|
Language : English
Default : No
Forced : No
Text #1
ID : 4
Format : UTF-8
Codec ID : S_TEXT/UTF8
Codec ID/Info : UTF-8 Plain Text
Title : Russian (Л.Векшин)
Language : Russian
Default : Yes
Forced : No
Text #2
ID : 5
Format : UTF-8
Codec ID : S_TEXT/UTF8
Codec ID/Info : UTF-8 Plain Text
Title : English
Language : English
Default : No
Forced : No

Скриншоты



Показать сообщения:    

Текущее время: 14-Дек 08:23

Часовой пояс: UTC ± 0


Вы не можете начинать темы
Вы не можете отвечать на сообщения
Вы не можете редактировать свои сообщения
Вы не можете удалять свои сообщения
Вы не можете голосовать в опросах
Вы не можете прикреплять файлы к сообщениям
Вы не можете скачивать файлы

!ВНИМАНИЕ!
Сайт не предоставляет электронные версии произведений, а занимается лишь коллекционированием и каталогизацией ссылок, присылаемых и публикуемых на форуме нашими читателями. Если вы являетесь правообладателем какого-либо представленного материала и не желаете, чтобы ссылка на него находилась в нашем каталоге, свяжитесь с нами, и мы незамедлительно удалим ее. Файлы для обмена на трекере предоставлены пользователями сайта, и администрация не несет ответственности за их содержание. Просьба не заливать файлы, защищенные авторскими правами, а также файлы нелегального содержания!