Ивановский Торрент трекер
Яндекс.Погода
 

[Цитировать]
HUNTER

Слушания по делу Алексея Навального о хищении имущества Кировлеса
Год выпуска: 2013
Страна: Россия
Жанр: прямая трансляция
Продолжительность: 83:13:23
Перевод: Не требуется
Русские субтитры: нет
Описание: Запись онлайн-трансляции из Ленинского районного суда г. Кирова, где рассматривалось дело в отношении Алексея Навального о хищении имущества «Кировлеса».
По версии следствия, во время работы советником губернатора Кировской области, в мае-сентябре 2009 года Навальный, вступив в сговор с директором «Вятской лесной компании» (ООО «ВЛК») Петром Офицеровым и гендиректором «Кировлеса» Вячеславом Опалевым, организовал хищение более 10 тысяч кубометров леса. Навальному и Офицерову грозит до десяти лет заключения.
Согласно документам, имеющимся в материалах дела, «Кировлес» продал 10 тысяч кубометров леса ООО «ВЛК» по договорам поставки на общую сумму около 16 млн. рублей, то есть отгрузил древесину и получил взамен денежные средства (оплату по договору).
Ранее Ленинским районным судом города Кирова было рассмотрено уголовное дело в отношении Опалева, с которым прокурор заключил досудебное соглашение о сотрудничестве. Опалев был приговорён к четырем годам лишения свободы условно.
Обвинительное заключение.
Доп. информация: Источник — сайт РАПСИ:
http://rapsinews.ru/trend/kirovles_case_31072012/
Раздача будет обновляться с появлением новых записей.
Хроника:
18.07.2013 суд приговорил Навального к 5 годам колонии, и Офицерова — к 4 годам колонии, постановив взять под стражу в зале суда.
19.07.2013 постановление о заключении под стражу отменено по представлению прокуратуры и подсудимые отпущены под подписку о невыезде до рассмотрения обжалования приговора.
16.10.2013 рассмотрение апелляции в областном суде. Приговор: 5 и 4 года условно.
Торрент-файл перезалит 17.10.2013
Сэмпл: http://multi-up.com/859335
качество: WEBRip
формат: AVI
видеокодек: XviD
аудиокодек: MP3
Видео: [XVID] 640x384 24bpp 25.000 fps 500.1 kbps (61.0 kbyte/s)
Аудио: [mp3] 48000 Hz, 2 ch, s16le, 128.0 kbit/8.33%

Список выпусков/серий

Слушания по делу Алексея Навального. День второй. 24.04.2013
Слушания по делу Алексея Навального. День третий. 25.04.2013
Слушания по делу Алексея Навального. День четвёртый. 26.04.2013
Слушания по делу Алексея Навального. День пятый. 15.05.2013
Слушания по делу Алексея Навального. День шестой. 16.05.2013
Слушания по делу Алексея Навального. День седьмой. 20.05.2013
Слушания по делу Алексея Навального. День восьмой. 21.05.2013
Слушания по делу Алексея Навального. День девятый. 22.05.2013
Слушания по делу Алексея Навального. День десятый. 29.05.2013
Слушания по делу Алексея Навального. День одиннадцатый. 30.05.2013
Новостной сюжет Первого канала по поводу дела от 30.05.2013
Слушания по делу Алексея Навального. День двенадцатый. 10.06.2013
Слушания по делу Алексея Навального. День тринадцатый. 11.06.2013
Слушания по делу Алексея Навального. День четырнадцатый. 13.06.2013
Слушания по делу Алексея Навального. День пятнадцатый. 17.06.2013
Слушания по делу Алексея Навального. День шестнадцатый. 18.06.2013
Слушания по делу Алексея Навального. День семнадцатый. 02.07.2013
Слушания по делу Алексея Навального. День восемнадцатый. 03.07.2013
Слушания по делу Алексея Навального. День девятнадцатый. 05.07.2013
Слушания по делу Алексея Навального. День двадцатый. Приговор. 18.07.2013
Рассмотрение жалобы на арест. 19.07.2013
Рассмотрение апелляции. Условный приговор. 17.10.2013

MediaInfo

General
Complete name : 2013_04_24_Кировлес.avi
Format : AVI
Format/Info : Audio Video Interleave
File size : 934 MiB
Duration : 3h 23mn
Overall bit rate : 641 Kbps
Writing application : Lavf53.21.0
Video
ID : 0
Format : MPEG-4 Visual
Format profile : Advanced Simple@L1
Format settings, BVOP : 2
Format settings, QPel : No
Format settings, GMC : No warppoints
Format settings, Matrix : Default (H.263)
Codec ID : XVID
Codec ID/Hint : XviD
Duration : 3h 23mn
Bit rate : 500 Kbps
Width : 640 pixels
Height : 384 pixels
Display aspect ratio : 16:9
Frame rate : 25.000 fps
Color space : YUV
Chroma subsampling : 4:2:0
Bit depth : 8 bits
Scan type : Progressive
Compression mode : Lossy
Bits/(Pixel*Frame) : 0.081
Stream size : 729 MiB (78%)
Writing library : Lavc53.35.0
Audio
ID : 1
Format : MPEG Audio
Format version : Version 1
Format profile : Layer 3
Mode : Joint stereo
Mode extension : MS Stereo
Codec ID : 55
Codec ID/Hint : MP3
Duration : 3h 23mn
Bit rate mode : Constant
Bit rate : 128 Kbps
Channel(s) : 2 channels
Sampling rate : 48.0 KHz
Compression mode : Lossy
Stream size : 187 MiB (20%)
Alignment : Aligned on interleaves
Interleave, duration : 24 ms (0.60 video frame)
General
Complete name : 2013_05_15_Кировлес.avi
Format : AVI
Format/Info : Audio Video Interleave
Format profile : OpenDML
File size : 1.16 GiB
Duration : 4h 46mn
Overall bit rate : 579 Kbps
Writing application : Lavf53.21.0
Video
ID : 0
Format : MPEG-4 Visual
Format profile : Advanced Simple@L1
Format settings, BVOP : 2
Format settings, QPel : No
Format settings, GMC : No warppoints
Format settings, Matrix : Default (H.263)
Codec ID : XVID
Codec ID/Hint : XviD
Duration : 4h 46mn
Bit rate : 500 Kbps
Width : 640 pixels
Height : 384 pixels
Display aspect ratio : 1.667
Frame rate : 25.000 fps
Color space : YUV
Chroma subsampling : 4:2:0
Bit depth : 8 bits
Scan type : Progressive
Compression mode : Lossy
Bits/(Pixel*Frame) : 0.081
Stream size : 1.00 GiB (86%)
Writing library : Lavc53.35.0
Audio
ID : 1
Format : MPEG Audio
Format version : Version 1
Format profile : Layer 3
Codec ID : 55
Codec ID/Hint : MP3
Duration : 4h 46mn
Bit rate mode : Constant
Bit rate : 64.0 Kbps
Channel(s) : 1 channel
Sampling rate : 44.1 KHz
Compression mode : Lossy
Stream size : 131 MiB (11%)
Alignment : Aligned on interleaves
Interleave, duration : 26 ms (0.65 video frame)

Скриншоты



Показать сообщения:    

Текущее время: 13-Дек 19:04

Часовой пояс: UTC ± 0


Вы не можете начинать темы
Вы не можете отвечать на сообщения
Вы не можете редактировать свои сообщения
Вы не можете удалять свои сообщения
Вы не можете голосовать в опросах
Вы не можете прикреплять файлы к сообщениям
Вы не можете скачивать файлы

!ВНИМАНИЕ!
Сайт не предоставляет электронные версии произведений, а занимается лишь коллекционированием и каталогизацией ссылок, присылаемых и публикуемых на форуме нашими читателями. Если вы являетесь правообладателем какого-либо представленного материала и не желаете, чтобы ссылка на него находилась в нашем каталоге, свяжитесь с нами, и мы незамедлительно удалим ее. Файлы для обмена на трекере предоставлены пользователями сайта, и администрация не несет ответственности за их содержание. Просьба не заливать файлы, защищенные авторскими правами, а также файлы нелегального содержания!