Важное объявление!
У Нас Все раздачи мультитрекерные, при нуле пиров в релизах, можете смело вставать на закачку!
 
Автор Сообщение

HUNTER

Стаж:
4 года 9 месяцев
Сообщений:
65057

Репутация: 101

[+] [-]
Вне форума [Профиль] [ЛС]

Случай в квадрате 36-80
Страна: СССР
Студия: Мосфильм
Жанр: Приключения, Военный
Год выпуска: 1982
Продолжительность: 1:09:24
Перевод: Не требуется
Cубтитры: нет
Оригинальная аудиодорожка: русский
Режиссер: Михаил Туманишвили
В ролях: Борис Щербаков, Михай (Михаил) Волонтир, Анатолий Кузнецов, Владимир Седов, Омар Волмер, Паул Буткевич, Витаутас Томкус, Ивар Калныньш
Описание: События происходят во времена холодной войны в 1980-е годы. Военно-морской флот СССР проводит боевые учения в Атлантическом океане. Экипаж воздушного танкера майора Волка выполняет обычную задачу по дозаправке самолётов-разведчиков в районе учений. В штаб советского командования поступает информация, что недалеко от места учений, в квадрате 36-80, потерпела аварию американская подводная лодка сил НАТО с крылатыми ракетами на борту. Неисправность в атомном реакторе грозит катастрофой. Самостоятельно экипаж не может исправить поломку и посылает сигнал бедствия. Советские войска оказываются ближе, чем американцы, однако, для того, чтобы доставить команду спасателей к подводной лодке, необходимо, что бы самолёт майора Волка отдал всё своё топливо самолёту спасателей…
Автор рипа:
Сэмпл: https://yadi.sk/i/ityhy7oQu3Tmm
Тип релиза: HDTV
Контейнер: TS
Видео: MPEG-4 AVC Video / 6457 Kbps / 1920x1080 / 25 fps / 16:9 / High Profile 4.1
Аудио 1: Русский / AC3 / 48 KHz / 2.0 ch / 384 Kbps
Аудио 2: Русский / MPEG2 / 48 KHz / 2.0 ch / 192 Kbps

MediaInfo

Случай в квадрате 36-80.HDTV 1080i.(1982).ts
Формат : MPEG-TS
Размер файла : 3,59 Гбайт
Продолжительность : 1 ч. 9 м.
Режим общего битрейта : Переменный
Общий поток : 7405 Кбит/сек
Видео
Идентификатор : 2141 (0x85D)
Идентификатор меню : 21004 (0x520C)
Формат : AVC
Формат/Информация : Advanced Video Codec
Профиль формата : Main@L4.0
Параметр CABAC формата : Да
Параметр ReFrames формата : 4 кадра
Параметр GOP формата : M=1, N=32
Идентификатор кодека : 27
Продолжительность : 1 ч. 9 м.
Битрейт : 6457 Кбит/сек
Ширина : 1920 пикселей
Высота : 1080 пикселей
Соотношение сторон : 16:9
Частота кадров : 25,000 кадров/сек
Цветовое пространство : YUV
Субдискретизация насыщенности : 4:2:0
Битовая глубина : 8 бит
Тип развёртки : Чересстрочная
Порядок развёртки : Верхнее поле первое
Бит/(Пиксели*Кадры) : 0.125
Размер потока : 3,13 Гбайт (87%)
Основные цвета : BT.709
Характеристики трансфера : BT.709
Коэффициенты матрицы : BT.709
Аудио #1
Идентификатор : 2142 (0x85E)
Идентификатор меню : 21004 (0x520C)
Формат : AC-3
Формат/Информация : Audio Coding 3
Расширение режима : CM (complete main)
Параметр Endianness формата : Big
Идентификатор кодека : 6
Продолжительность : 1 ч. 9 м.
Вид битрейта : Постоянный
Битрейт : 384 Кбит/сек
Каналы : 6 каналов
Расположение каналов : Front: L C R, Side: L R, LFE
Частота : 48,0 КГц
Битовая глубина : 16 бит
Метод сжатия : С потерями
Размер потока : 191 Мбайт (5%)
Язык : Russian
Аудио #2
Идентификатор : 2143 (0x85F)
Идентификатор меню : 21004 (0x520C)
Формат : MPEG Audio
Версия формата : Version 1
Профиль формата : Layer 2
Идентификатор кодека : 3
Продолжительность : 1 ч. 9 м.
Вид битрейта : Постоянный
Битрейт : 192 Кбит/сек
Каналы : 2 канала
Частота : 48,0 КГц
Метод сжатия : С потерями
Размер потока : 95,3 Мбайт (3%)
Язык : Russian

Скриншоты сравнения с чешским DVD

Эта раздача
Чешский DVD

_________________
Показать сообщения:    

Текущее время: Сегодня 06:45

Часовой пояс: GMT



Вы не можете начинать темы
Вы не можете отвечать на сообщения
Вы не можете редактировать свои сообщения
Вы не можете удалять свои сообщения
Вы не можете голосовать в опросах
Вы не можете прикреплять файлы к сообщениям
Вы не можете скачивать файлы