Ивановский Торрент трекер
Яндекс.Погода
 

[Цитировать]
HUNTER

Служебный роман. Наше время Год выпуска: 2011
Страна: Россия
Жанр: Мелодрама, комедия
Продолжительность: 01:31:03
Перевод: Оригинальный
Cубтитры: нет-Режиссер: Сарик Андреасян
В ролях: Светлана Ходченкова, Владимир Зеленский, Марат Башаров, Анастасия Заворотнюк, Павел Воля, Дмитрий Хрусталев, Тимур Родригез, Алика Смехова, Иван Охлобыстин, Софья Хилькова
Описание: Ее зовут Людмила Калугина, она руководит крупным рейтинговым агентством, проводя жизнь в борьбе с конкурентами. Его — Анатолий Новосельцев, он работает финансовым аналитиком, а в свободное от работы время гоняет на мотоцикле и в одиночку воспитывает двоих детей: девочку и… еще одну девочку.
Она для него — начальница-мымра, он для нее — офисный планктон и законченный неудачник. Так и не узнали бы они ничего друг о друге, если бы не служебный роман…-Сэмпл: http://multi-up.com/580641
Тип релиза: BDRip 1080p
Контейнер: MKV
Видео: 1920x816 (2.35:1), 23.976 fps, 9 754 Kbps, 0.260 bit/pixel
Аудио: Русский, DTS, 6 ch., 48 kHz, ~1 510 Kbps-Бюджет: $5 000 000
Сборы в России: $11 829 672
Сборы в мире: $14 650 000-Мировая премьера: 17 марта 2011
Релиз на DVD: 14 апреля 2011, «Новый Диск»
Релиз на Blu-ray: 9 июня 2011, «Новый Диск»

Доп.информация

Знаете ли вы, что...
Права на экранизацию оригинальной пьесы были приобретены студией Леополис у режиссера Александра Атанесяна, а тот в свою очередь, приобрёл их у Эльдара Рязанова в середине 90-х годов.
Тигран Кеосаян принимал участие в съёмках фильма 'Служебный роман. Наше время', однако все сцены с его участием были вырезаны и пересняты.

MediaInfo

General
Complete name :Slujebnii Roman.BDRip.1080p.mkv
Format : Matroska
File size : 7.32 GiB
Duration : 1h 31mn
Overall bit rate : 11.5 Mbps
Movie name : Slujebnii Roman.BDRip.1080p
Encoded date : UTC 2011-12-06 18:39:33
Writing application : mkvmerge v3.3.0 ('Language') built on Mar 24 2010 14:59:24
Writing library : libebml v0.8.0 + libmatroska v0.9.0
Video
ID : 1
Format : AVC
Format/Info : Advanced Video Codec
Format profile : High@L4.1
Format settings, CABAC : Yes
Format settings, ReFrames : 5 frames
Muxing mode : Container profile=Unknown@4.1
Codec ID : V_MPEG4/ISO/AVC
Duration : 1h 31mn
Bit rate : 9 767 Kbps
Nominal bit rate : 9 999 Kbps
Width : 1 920 pixels
Height : 816 pixels
Display aspect ratio : 2.35:1
Frame rate : 23.976 fps
Resolution : 8 bits
Colorimetry : 4:2:0
Scan type : Progressive
Bits/(Pixel*Frame) : 0.260
Stream size : 6.21 GiB (85%)
Title : Slujebnii Roman.BDRip.1080p
Writing library : x264 core 115 r1995 c1e60b9
Encoding settings : cabac=1 / ref=5 / deblock=1:-3:-3 / analyse=0x3:0x133 / me=umh / subme=9 / psy=1 / psy_rd=1.05:0.10 / mixed_ref=1 / me_range=64 / chroma_me=1 / trellis=2 / 8x8dct=1 / cqm=0 / deadzone=21,11 / fast_pskip=1 / chroma_qp_offset=-3 / threads=6 / sliced_threads=0 / nr=0 / decimate=1 / interlaced=0 / bluray_compat=0 / constrained_intra=0 / bframes=6 / b_pyramid=2 / b_adapt=1 / b_bias=0 / direct=1 / weightb=1 / open_gop=0 / weightp=2 / keyint=250 / keyint_min=23 / scenecut=40 / intra_refresh=0 / rc_lookahead=40 / rc=2pass / mbtree=1 / bitrate=9999 / ratetol=1.0 / qcomp=0.60 / qpmin=0 / qpmax=69 / qpstep=4 / cplxblur=20.0 / qblur=0.5 / vbv_maxrate=50000 / vbv_bufsize=62500 / nal_hrd=none / ip_ratio=1.40 / aq=1:1.00
Language : Russian
Audio
ID : 2
Format : DTS
Format/Info : Digital Theater Systems
Codec ID : A_DTS
Duration : 1h 31mn
Bit rate mode : Constant
Bit rate : 1 510 Kbps
Channel(s) : 6 channels
Channel positions : Front: L C R, Side: L R, LFE
Sampling rate : 48.0 KHz
Resolution : 24 bits
Video delay : 11ms
Stream size : 983 MiB (13%)
Title : RUS.DTS.Slujebnii Roman.BDRip.1080p
Language : Russian

Скриншоты



Показать сообщения:    

Текущее время: 21-Сен 07:52

Часовой пояс: UTC - 1


Вы не можете начинать темы
Вы не можете отвечать на сообщения
Вы не можете редактировать свои сообщения
Вы не можете удалять свои сообщения
Вы не можете голосовать в опросах
Вы не можете прикреплять файлы к сообщениям
Вы не можете скачивать файлы

!ВНИМАНИЕ!
Сайт не предоставляет электронные версии произведений, а занимается лишь коллекционированием и каталогизацией ссылок, присылаемых и публикуемых на форуме нашими читателями. Если вы являетесь правообладателем какого-либо представленного материала и не желаете, чтобы ссылка на него находилась в нашем каталоге, свяжитесь с нами, и мы незамедлительно удалим ее. Файлы для обмена на трекере предоставлены пользователями сайта, и администрация не несет ответственности за их содержание. Просьба не заливать файлы, защищенные авторскими правами, а также файлы нелегального содержания!