Сломанный Меч / Break Blade [TV] [4 из 12] [Без хардсаба] [JAP, SUB] [2014 г., приключения, фэнтези, меха, HDTVRip] [720p] :: Ивановский Торрент трекер
Важное объявление!
У Нас Все раздачи мультитрекерные, при нуле пиров в релизах, можете смело вставать на закачку!
Статистика раздачи
Размер:     |    Зарегистрирован:     |    Скачан:     |   
Нет
 
     
 
 
Автор Сообщение

HUNTER

Стаж:
4 года 11 месяцев
Сообщений:
66116

Репутация: 101

[+] [-]
Вне форума [Профиль] [ЛС]

Сломанный Меч / Break Blade
Страна: Япония
Год выпуска: 2014 г.
Жанр: приключения, фэнтези, меха
Тип: TV
Продолжительность: 12 эп. по 25 мин.
Режиссер: Амино Тэцуро
Студия: Production I.G, Xebec
Описание: На континенте Крузон назревает война между королевством Крисна и республикой Атен. Люди в этих странах владеют магией - могут использовать минерал кварц для любых целей, которые пожелают. Но один человек, Райгат Арроу, не может, он так называемый "немаг", "неспособный". Однако, эта неспособность помогает ему в пилотировании древнего Голема, настолько сильного, что он может склонить чашу весов в этой войне не в пользу республики Атен...
Качество: HDTVRip
Тип релиза: Без хардсаба
Формат видео: MP4
Наличие линковки: Нет
Релиз/Автор рипа: Leopard-Raws
Видео: H264, 1280x720, 2420.5 kbps, 23.976 fps
Аудио: AAC, 191.5 kbit, 48000 Hz, 2 ch Язык Японский
Субтитры: ASS, внешние Язык субтитров русский ; Перевод: [GMC]
Участники:
Редактор: Fatotaku
Переводчик/Оформление: St_Ranger
Подробные тех. данные
GeneralComplete name : NFS/[Leopard-Raws] Break Blade (2014) - 01 RAW (MX 1280x720 x264 AAC).mp4Format : MPEG-4Format profile : Base MediaCodec ID : isomFile size : 449 MiBDuration : 24mn 0sOverall bit rate mode : VariableOverall bit rate : 2 616 KbpsEncoded date : UTC 2014-04-07 04:17:14Tagged date : UTC 2014-04-07 04:17:14
VideoID : 1Format : AVCFormat/Info : Advanced Video CodecFormat profile : High@L4.1Format settings, CABAC : YesFormat settings, ReFrames : 4 framesCodec ID : avc1Codec ID/Info : Advanced Video CodingDuration : 23mn 59sBit rate : 2 420 KbpsMaximum bit rate : 16.3 MbpsWidth : 1 280 pixelsHeight : 720 pixelsDisplay aspect ratio : 16:9Frame rate mode : ConstantFrame rate : 23.976 fpsColor space : YUVChroma subsampling : 4:2:0Bit depth : 8 bitsScan type : ProgressiveBits/(Pixel*Frame) : 0.110Stream size : 415 MiB (93%)Title : 264:fps=23.976@GPAC0.5.1-DEV-rev4283Writing library : x264 core 129 r2245+729M 1a52e03Encoding settings : cabac=1 / ref=4 / deblock=1:1:-1 / analyse=0x3:0x113 / me=umh / subme=9 / psy=1 / fade_compensate=0.00 / psy_rd=1.00:0.00 / mixed_ref=1 / me_range=24 / chroma_me=1 / trellis=2 / 8x8dct=1 / cqm=0 / deadzone=21,11 / fast_pskip=1 / chroma_qp_offset=-2 / threads=8 / lookahead_threads=1 / sliced_threads=0 / nr=0 / decimate=1 / interlaced=0 / bluray_compat=0 / constrained_intra=0 / fgo=0 / bframes=9 / b_pyramid=2 / b_adapt=2 / b_bias=0 / direct=1 / weightb=1 / open_gop=0 / weightp=2 / keyint=240 / keyint_min=24 / scenecut=40 / intra_refresh=0 / rc=crf / mbtree=0 / crf=19.0 / qcomp=0.72 / qpmin=0 / qpmax=69 / qpstep=4 / ip_ratio=1.40 / pb_ratio=1.30 / aq=1:0.85Encoded date : UTC 2014-04-07 04:17:14Tagged date : UTC 2014-04-07 04:17:16Color primaries : BT.709Transfer characteristics : BT.709Matrix coefficients : BT.709
AudioID : 2Format : AACFormat/Info : Advanced Audio CodecFormat profile : LCCodec ID : 40Duration : 24mn 0sBit rate mode : VariableBit rate : 192 KbpsMaximum bit rate : 222 KbpsChannel count : 2 channelsChannel positions : Front: L RSampling rate : 48.0 KHzCompression mode : LossyStream size : 32.9 MiB (7%)Language : JapaneseEncoded date : UTC 2014-04-06 15:21:30Tagged date : UTC 2014-04-07 04:17:16
Скриншоты

_________________
Показать сообщения:    

Текущее время: Сегодня 10:58

Часовой пояс: GMT



Вы не можете начинать темы
Вы не можете отвечать на сообщения
Вы не можете редактировать свои сообщения
Вы не можете удалять свои сообщения
Вы не можете голосовать в опросах
Вы не можете прикреплять файлы к сообщениям
Вы не можете скачивать файлы