Ивановский Торрент трекер
Яндекс.Погода
 

[Цитировать]
HUNTER

Слепой поворот / Blind Turn
Страна: США
Жанр: триллер, драма, детектив
Год выпуска: 2012
Продолжительность: 01:19:11
Перевод: Профессиональный (двухголосый закадровый) НТВ+
Cубтитры: нет
Оригинальная аудиодорожка: английский
Режиссер: Роберт Орр / Robert Orr
В ролях: Рейчел Бостон, Jay Dee Walters, Джон Родригез, Кристиан Стоукс, Джордж Уилсон, Маргарет Уитни, Isabella Walters, Brandon Walters, Дин Дентон, Мэри Альфред Тома
Описание: Ночью на пустынной дороге Саманта съезжает с шоссе и попадает в аварию. Спустя год человек, чью жизнь этот случай невольно разрушил, похищает Саманту, чтобы преподать ей жестокий урок…
Сэмпл: http://multi-up.com/983816
Тип релиза: WEB-DL 720p
Контейнер: MKV
Видео: MPEG4 Video (H264) 1278x720 23.976fps 16:9 3 943 Kbps
Аудио: Русский AC-3 2 ch 48.0 KHz 192 Kbps
Аудио 2: Английский AC-3 6 ch 48.0 KHz 384 Kbps

MediaInfo

General
Unique ID : 173683178142157286816708418440045896783 (0x82AA29D2181A4AABA42BEC6891C5A44F)
Complete name : C:\Users\Вика\Desktop\Blind Turn 2012 WEB-DL 720p x264 AC3.mkv
Format : Matroska
Format version : Version 4 / Version 2
File size : 2.55 GiB
Duration : 1h 19mn
Overall bit rate : 4 611 Kbps
Encoded date : UTC 2014-07-02 03:19:57
Writing application : mkvmerge v6.9.1 ('Blue Panther') 64bit built on Apr 18 2014 18:23:38
Writing library : libebml v1.3.0 + libmatroska v1.4.1
Video
ID : 1
Format : AVC
Format/Info : Advanced Video Codec
Format profile : High@L3.1
Format settings, CABAC : No
Format settings, ReFrames : 2 frames
Codec ID : V_MPEG4/ISO/AVC
Duration : 1h 19mn
Bit rate : 3 943 Kbps
Width : 1 278 pixels
Height : 720 pixels
Display aspect ratio : 16:9
Frame rate mode : Constant
Frame rate : 23.976 fps
Color space : YUV
Chroma subsampling : 4:2:0
Bit depth : 8 bits
Scan type : Progressive
Bits/(Pixel*Frame) : 0.179
Stream size : 2.18 GiB (86%)
Title : x264
Language : English
Default : Yes
Forced : No
Color primaries : BT.709
Transfer characteristics : BT.709
Matrix coefficients : BT.709
Audio #1
ID : 2
Format : AC-3
Format/Info : Audio Coding 3
Mode extension : CM (complete main)
Format settings, Endianness : Big
Codec ID : A_AC3
Duration : 1h 19mn
Bit rate mode : Constant
Bit rate : 192 Kbps
Channel count : 2 channels
Channel positions : Front: L R
Sampling rate : 48.0 KHz
Bit depth : 16 bits
Compression mode : Lossy
Stream size : 109 MiB (4%)
Title : DVO НТВ+
Language : Russian
Default : Yes
Forced : No
Audio #2
ID : 3
Format : AC-3
Format/Info : Audio Coding 3
Mode extension : CM (complete main)
Format settings, Endianness : Big
Codec ID : A_AC3
Duration : 1h 19mn
Bit rate mode : Constant
Bit rate : 384 Kbps
Channel count : 6 channels
Channel positions : Front: L C R, Side: L R, LFE
Sampling rate : 48.0 KHz
Bit depth : 16 bits
Compression mode : Lossy
Stream size : 217 MiB (8%)
Title : English AC3
Language : English
Default : No
Forced : No

Скриншоты

Показать сообщения:    

Текущее время: 26-Сен 10:08

Часовой пояс: UTC - 1


Вы не можете начинать темы
Вы не можете отвечать на сообщения
Вы не можете редактировать свои сообщения
Вы не можете удалять свои сообщения
Вы не можете голосовать в опросах
Вы не можете прикреплять файлы к сообщениям
Вы не можете скачивать файлы

!ВНИМАНИЕ!
Сайт не предоставляет электронные версии произведений, а занимается лишь коллекционированием и каталогизацией ссылок, присылаемых и публикуемых на форуме нашими читателями. Если вы являетесь правообладателем какого-либо представленного материала и не желаете, чтобы ссылка на него находилась в нашем каталоге, свяжитесь с нами, и мы незамедлительно удалим ее. Файлы для обмена на трекере предоставлены пользователями сайта, и администрация не несет ответственности за их содержание. Просьба не заливать файлы, защищенные авторскими правами, а также файлы нелегального содержания!