Важное объявление!
У Нас Все раздачи мультитрекерные, при нуле пиров в релизах, можете смело вставать на закачку!
Статистика раздачи
Размер:     |    Зарегистрирован:     |    Скачан:     |   
Нет
 
     
 
 
Автор Сообщение

HUNTER

Стаж:
5 лет
Сообщений:
68018

Репутация: 101

[+] [-]
Вне форума [Профиль] [ЛС]

-Следующая пятница / Next Friday
Страна: США
Жанр: комедия
Год выпуска: 2000
Продолжительность: 01:38:06-Перевод #1: Профессиональный (полное дублирование) Laser Video
Перевод #2: Авторский (одноголосый, закадровый) Диктор CDV
Перевод #3: Авторский (одноголосый, закадровый) В. Сонькин
Оригинальная аудиодорожка: английский
Cубтитры: нет
Режиссер: Стив Карр / Steve Carr
В ролях: Айс Кьюб, Крис Такер, Майк Эппс, Джастин Пирс, Джон Уизерспун, Дон «Д.С.» Керри, Джейкоб Варгас, Лобо Себастьян, Роландо Молина, Лиза Родригез, Том ’Тайни’ Листер мл., Ким Уитли, Эми Хилл, Тамала Джонс, Кармен Серано, Мария Арк, Ванесса Уайт, Клифтон Пауэлл, Майкл Блэксон, Ронн Райзер, Дэвид Эрл Ватерман, Шеридан Бест, Стикки Фингаз, Шэйн Конрад, Кибо, Дэниэл Деринг, Майкл Рапапорт
Описание: Крейг — настоящий герой улиц. Он вырос в гетто и ему не страшны никакие испытания. Он одинаково крут и в тюрьме, где к нему неровно дышит гигантского размера сокамерник, и в шикарной обстановке роскошного особняка своего безработного дяди, который выиграл в лотерею миллион долларов и от радости потерял чувство реальности.
Сногсшибательная латино-американская красотка готова на все ради его внимания, а ее вооруженные до зубов братья — бандиты бьются в истерике от злости. В общем скучать ему не приходится, главное вовремя покурить травки и не воспринимать все слишком серьезно.-
Сэмпл: скачать-Автор рипа: Викс
Контейнер: MKV
Качество: BDRip 720p
Видео: 1280x720 (1.77:1), 23.976 fps, MPEG-4 AVC, ~6500 kbps avg, 0.294 bit/pixel
Аудио #1: Русский: АС3, 2.0, 48 kHz, ~192 Кбит/с | Профессиональный (полное дублирование) Laser Video |
Аудио #2: Русский: АС3, 2.0, 48 kHz, ~192 Кбит/с | Авторский (одноголосый, закадровый) Диктор CDV |
Аудио #3: Русский: АС3, 5.1, 48 kHz, ~448 Кбит/с | Авторский (одноголосый, закадровый) В. Сонькин |
Аудио #4: Английский: DTS, 5.1, 48 kHz, ~1509 Кбит/с | Оригинал |
Субтитры: нет
Главы: Присутствуют, сохранены оригинальные

MediaInfo

Полное имя : Sleduyuschaya.pyatnitsa.2000.x264.BDRip.720p-MediaClub.mkv
Формат : Matroska
Версия формата : Version 2
Размер файла : 6,06 Гбайт
Продолжительность : 1 ч. 38 м.
Общий поток : 8842 Кбит/сек
Название фильма : Sleduyuschaya pyatnitsa (2000) BDRip 720p=MediaClub=-[Викс]-
Дата кодирования : UTC 2013-10-30 19:25:09
Программа кодирования : mkvmerge v4.2.0 ('No Talking') сборка от Jul 28 2010 18:38:23
Библиотека кодирования : libebml v1.0.0 + libmatroska v1.0.0
Видео
Идентификатор : 1
Формат : AVC
Формат/Информация : Advanced Video Codec
Профиль формата : High@L4.1
Параметр CABAC формата : Да
Параметр ReFrames формата : 10 кадров
Идентификатор кодека : V_MPEG4/ISO/AVC
Продолжительность : 1 ч. 38 м.
Битрейт : 6500 Кбит/сек
Ширина : 1280 пикселей
Высота : 720 пикселей
Соотношение сторон : 16:9
Режим частоты кадров : Постоянный
Частота кадров : 23,976 кадра/сек
Цветовое пространство : YUV
Субдискретизация насыщенности : 4:2:0
Битовая глубина : 8 бит
Тип развёртки : Прогрессивная
Бит/(Пиксели*Кадры) : 0.294
Размер потока : 4,33 Гбайт (72%)
Библиотека кодирования : x264 core 130 r2273 b3065e6
Настройки программы : cabac=1 / ref=10 / deblock=1:-3:-3 / analyse=0x3:0x113 / me=umh / subme=11 / psy=1 / psy_rd=1.00:0.20 / mixed_ref=1 / me_range=48 / chroma_me=1 / trellis=2 / 8x8dct=1 / cqm=0 / deadzone=21,11 / fast_pskip=0 / chroma_qp_offset=-3 / threads=6 / lookahead_threads=1 / sliced_threads=0 / nr=0 / decimate=0 / interlaced=0 / bluray_compat=0 / constrained_intra=0 / bframes=8 / b_pyramid=2 / b_adapt=2 / b_bias=0 / direct=3 / weightb=1 / open_gop=0 / weightp=2 / keyint=250 / keyint_min=23 / scenecut=40 / intra_refresh=0 / rc_lookahead=40 / rc=2pass / mbtree=1 / bitrate=6500 / ratetol=1.0 / qcomp=0.60 / qpmin=0 / qpmax=69 / qpstep=4 / cplxblur=20.0 / qblur=0.5 / ip_ratio=1.40 / aq=1:1.00
Язык : English
Default : Да
Forced : Нет
Аудио #1
Идентификатор : 2
Формат : AC-3
Формат/Информация : Audio Coding 3
Расширение режима : CM (complete main)
Параметр Endianness формата : Big
Идентификатор кодека : A_AC3
Продолжительность : 1 ч. 38 м.
Вид битрейта : Постоянный
Битрейт : 192 Кбит/сек
Каналы : 2 канала
Расположение каналов : Front: L R
Частота : 48,0 КГц
Битовая глубина : 16 бит
Метод сжатия : С потерями
Размер потока : 135 Мбайт (2%)
Заголовок : Dublyazh
Язык : Russian
Default : Да
Forced : Нет
Аудио #2
Идентификатор : 3
Формат : AC-3
Формат/Информация : Audio Coding 3
Расширение режима : CM (complete main)
Параметр Endianness формата : Big
Идентификатор кодека : A_AC3
Продолжительность : 1 ч. 38 м.
Вид битрейта : Постоянный
Битрейт : 192 Кбит/сек
Каналы : 2 канала
Расположение каналов : Front: L R
Частота : 48,0 КГц
Битовая глубина : 16 бит
Метод сжатия : С потерями
Размер потока : 135 Мбайт (2%)
Заголовок : Dictor CDV
Язык : Russian
Default : Нет
Forced : Нет
Аудио #3
Идентификатор : 4
Формат : AC-3
Формат/Информация : Audio Coding 3
Расширение режима : CM (complete main)
Параметр Endianness формата : Big
Идентификатор кодека : A_AC3
Продолжительность : 1 ч. 38 м.
Вид битрейта : Постоянный
Битрейт : 448 Кбит/сек
Каналы : 6 каналов
Расположение каналов : Front: L C R, Side: L R, LFE
Частота : 48,0 КГц
Битовая глубина : 16 бит
Метод сжатия : С потерями
Размер потока : 314 Мбайт (5%)
Заголовок : Sonkin
Язык : Russian
Default : Нет
Forced : Нет
Аудио #4
Идентификатор : 5
Формат : DTS
Формат/Информация : Digital Theater Systems
Режим : 16
Параметр Endianness формата : Big
Идентификатор кодека : A_DTS
Продолжительность : 1 ч. 38 м.
Вид битрейта : Постоянный
Битрейт : 1509 Кбит/сек
Каналы : 6 каналов
Расположение каналов : Front: L C R, Side: L R, LFE
Частота : 48,0 КГц
Битовая глубина : 24 бит
Метод сжатия : С потерями
Размер потока : 1,03 Гбайт (17%)
Язык : English
Default : Нет
Forced : Нет
Меню
00:00:00.000 : :Chapter 01
00:04:09.415 : :Chapter 02
00:08:05.109 : :Chapter 03
00:13:48.953 : :Chapter 04
00:19:57.070 : :Chapter 05
00:22:57.000 : :Chapter 06
00:25:16.014 : :Chapter 07
00:28:55.692 : :Chapter 08
00:32:32.533 : :Chapter 09
00:37:42.635 : :Chapter 10
00:40:41.689 : :Chapter 11
00:46:37.336 : :Chapter 12
00:50:35.657 : :Chapter 13
00:55:23.278 : :Chapter 14
01:01:00.865 : :Chapter 15
01:07:22.037 : :Chapter 16
01:12:30.220 : :Chapter 17
01:19:31.933 : :Chapter 18
01:28:31.556 : :Chapter 19

x264 log

x264 [info]: frame I:1031 Avg QP:15.08 size:176948
x264 [info]: frame P:35477 Avg QP:17.80 size: 67020
x264 [info]: frame B:104638 Avg QP:20.21 size: 21230

Скриншоты


_________________
Показать сообщения:    

Текущее время: Сегодня 20:49

Часовой пояс: GMT



Вы не можете начинать темы
Вы не можете отвечать на сообщения
Вы не можете редактировать свои сообщения
Вы не можете удалять свои сообщения
Вы не можете голосовать в опросах
Вы не можете прикреплять файлы к сообщениям
Вы не можете скачивать файлы