Важное объявление!
У Нас Все раздачи мультитрекерные, при нуле пиров в релизах, можете смело вставать на закачку!
Статистика раздачи
Размер:     |    Зарегистрирован:     |    Скачан:     |   
Нет
 
     
 
 
Автор Сообщение

HUNTER

Стаж:
5 лет
Сообщений:
68053

Репутация: 101

[+] [-]
Вне форума [Профиль] [ЛС]

Славные парни / The Nice Guys
-Год выпуска: 2016
Страна: США, Великобритания
Студия: Silver Pictures, Waypoint Entertainment, Bloom
Жанр: криминал, комедия
Продолжительность: 01:51:03
Перевод: Профессиональный (дублированный) iTunes Russia / Парадиз Медиа
Cубтитры: нет
Оригинальная аудиодорожка: нет
-Режиссер: Шейн Блэк / Shane Black-В ролях: Райан Гослинг, Ким Бейсингер, Расселл Кроу, Энгаури Райс, Мэтт Бомер, Маргарет Куэлли, Йайа ДаКоста, Кит Дэвид, Бо Напп, Лоис Смит и другие.-Роли дублировали: Михаил Тихонов, Олег Куценко, Ольга Плетнёва, Даниил Эльдаров, Надежда Подъяпольская, Всеволод Кузнецов и другие.-Описание: Что бывает, когда напарником брутального костолома становится субтильный лопух? Наемный охранник Джексон Хили и частный детектив Холланд Марч вынуждены работать в паре, чтобы распутать плевое дело о пропавшей девушке, которое оборачивается преступлением века. Смогут ли парни разгадать сложный ребус, если у каждого из них — свои, весьма индивидуальные методы…-РЕЛИЗ ОТ: V.SERIJ2013-Качество: WEB-DL 1080p |HDClub|
Формат: MKV
Видео кодек: H.264
Аудио кодек: AC3
Видео: H.264, 1920x804 (2.40:1), 25.000 fps, 4324 kbps, 0.112 bit/pixel
Аудио: AC3, 48 kHz, 6 ch, 384 kbps
-Сэмпл \ Кинопоиск-

Скриншоты

Media Info

Код:
General
Unique ID                      : 209659339654790946036948707222993543369 (0x9DBAEB877D6942B6A22D978DD9B0A0C9)
Complete name                  : E:\Video\HD\Movies (HD)\The Nice Guys (2016) (WEB-DL 1080p).mkv
Format                         : Matroska
Format version                 : Version 4 / Version 2
File size                      : 3.73 GiB
Duration                       : 1h 51mn
Overall bit rate               : 4 804 Kbps
Encoded date                   : UTC 2016-07-28 08:14:48
Writing application            : mkvmerge v8.8.0 ('Wind at my back') 32bit
Writing library                : libebml v1.3.3 + libmatroska v1.4.4
DURATION                       : 01:51:03.584000000
NUMBER_OF_FRAMES               : 208237
NUMBER_OF_BYTES                : 319852032
_STATISTICS_WRITING_APP        : mkvmerge v8.8.0 ('Wind at my back') 32bit
_STATISTICS_WRITING_DATE_UTC   : 2016-07-28 08:14:48
_STATISTICS_TAGS               : BPS DURATION NUMBER_OF_FRAMES NUMBER_OF_BYTES
Video
ID                             : 1
Format                         : AVC
Format/Info                    : Advanced Video Codec
Format profile                 : High@L4.0
Format settings, CABAC         : Yes
Format settings, ReFrames      : 5 frames
Codec ID                       : V_MPEG4/ISO/AVC
Duration                       : 1h 51mn
Bit rate                       : 4 324 Kbps
Width                          : 1 920 pixels
Height                         : 804 pixels
Display aspect ratio           : 2.40:1
Frame rate mode                : Constant
Frame rate                     : 25.000 fps
Color space                    : YUV
Chroma subsampling             : 4:2:0
Bit depth                      : 8 bits
Scan type                      : Progressive
Bits/(Pixel*Frame)             : 0.112
Stream size                    : 3.35 GiB (90%)
Language                       : English
Default                        : Yes
Forced                         : No
Color primaries                : BT.709
Transfer characteristics       : BT.709
Matrix coefficients            : BT.709
Color range                    : Limited
Audio
ID                             : 2
Format                         : AC-3
Format/Info                    : Audio Coding 3
Mode extension                 : CM (complete main)
Format settings, Endianness    : Big
Codec ID                       : A_AC3
Duration                       : 1h 51mn
Bit rate mode                  : Constant
Bit rate                       : 384 Kbps
Channel(s)                     : 6 channels
Channel positions              : Front: L C R, Side: L R, LFE
Sampling rate                  : 48.0 KHz
Bit depth                      : 16 bits
Compression mode               : Lossy
Stream size                    : 305 MiB (8%)
Title                          : DUB (iTunes / Парадиз Медиа)
Language                       : Russian
Default                        : Yes
Forced                         : No
Menu
00:00:00.000                   : en:1
00:05:11.920                   : en:2
00:10:32.080                   : en:3
00:15:49.320                   : en:4
00:21:52.600                   : en:5
00:27:59.160                   : en:6
00:33:26.560                   : en:7
00:39:43.040                   : en:8
00:45:19.960                   : en:9
00:50:40.440                   : en:10
00:56:20.680                   : en:11
01:03:01.800                   : en:12
01:08:38.720                   : en:13
01:14:35.520                   : en:14
01:21:06.640                   : en:15
01:27:33.440                   : en:16
01:33:37.520                   : en:17
01:39:12.280                   : en:18
-

_________________
Показать сообщения:    

Текущее время: Сегодня 06:57

Часовой пояс: GMT



Вы не можете начинать темы
Вы не можете отвечать на сообщения
Вы не можете редактировать свои сообщения
Вы не можете удалять свои сообщения
Вы не можете голосовать в опросах
Вы не можете прикреплять файлы к сообщениям
Вы не можете скачивать файлы