Ивановский Торрент трекер
Яндекс.Погода
 

[Цитировать]
HUNTER

Славные парни / Goodfellas
Страна: США
Студия: Warner Bros.
Жанр: Фильм-биография, Криминальная драма
Год выпуска: 1990
Продолжительность: 02:25.18
Перевод: Авторский (одноголосый закадровый) Андрей Гаврилов
Перевод 2: Авторский (одноголосый закадровый) Алексей Михалёв
Перевод 3: Авторский (одноголосый закадровый) Василий Горчаков
Перевод 4: Авторский (одноголосый закадровый) Юрий Живов
Перевод 5: Авторский (одноголосый закадровый) Павел Прямостанов (оцифровка с VHS)
Cубтитры: нет
Оригинальная аудиодорожка: английская
Режиссер: Мартин Скорсезе / Martin Scorsese
В ролях: В ролях: Роберт Де Ниро, Рэй Лиотта, Джо Пеши, Лоррэйн Бракко, Пол Сорвино, Чак Лоу, Фрэнк ДиЛео, Фрэнк Сиверо, Тони Дэрроу, Майк Старр, Фрэнк Винсент, Фрэнк Адонис, Джина Мастроджакомо, Сюзанн Шепард, Деби Мазар, Майкл Империоли, Фрэнк Пеллегрино, Сэмюэл Л. Джексон, Джон Ди Бенедетто, Винсент Пасторе
Описание: Молодой парень с детства мечтал лишь об одном – стать настоящим гангстером, его манили дорогие машины, шикарные костюмы и та красивая жизнь, которой живут бандиты. Славные парни – так они называли друг друга, им все сходило с рук, они считали себя сильными мира сего. Со временем парнишка вырос, обзавелся семьей и решил заняться наркобизнесом, не смотря на то, что его покровители не одобряли этого. Когда отдел по борьбе с наркотиками прижал его к стенке, ему ничего не осталось, как сдать всех своих бывших друзей и навсегда исчезнуть, прожить до конца своих дней под чужим именем, обычной жизнью, которую он так ненавидел.
Доп. информация: Релиз клуба E180 скачан с another torrent-tracker, позтому информации о использованном при его подготовке ПО нет.
Бонусы: Нет
Меню: Нет. Звуковые дорожки переключаются "вручную"
Сэмпл: http://multi-up.com/948080
Тип релиза: DVD9 (Custom)
Контейнер: DVD-Video
Видео: NTSC 16:9 (720x480) VBR Auto Letterboxed
Аудио: Русский AC3, 3/2+LFE ch, 448Kbps (Андрей Гаврилов)
Аудио 2: Русский AC3, 3/2+LFE ch, 448Kbps (Алексей Михалёв)
Аудио 3: Русский AC3, 3/2+LFE ch, 448Kbps (Василий Горчаков)
Аудио 4: Русский AC3, 3/2+LFE ch, 448Kbps (Юрий Живов)
Аудио 5: Русский AC3, 2/0 ch, 192Kbps (Павел Прямостанов)
Аудио 6: Английский AC3, 3/2+LFE ch, 448Kbps

DVDInfo

Title: GOODFELLAS
Size: 7.84 Gb ( 8 221 560,00 KBytes ) - DVD-9
Enabled regions: 1, 2, 3, 4, 5, 6
VTS_01 :
Play Length: 00:00:29
Video: NTSC 16:9 (720x480) VBR, Auto Letterboxed
Audio:
Deutsch (Dolby AC3, 2 ch)
VTS_02 :
Play Length: 02:25:18
Video: NTSC 16:9 (720x480) VBR, Auto Letterboxed
Audio:
Russian (Dolby AC3, 6 ch)
Russian (Dolby AC3, 6 ch)
Russian (Dolby AC3, 6 ch)
Russian (Dolby AC3, 6 ch)
Russian (Dolby AC3, 2 ch)
English (Dolby AC3, 6 ch)

MediaInfo

Общее
Полное имя : J:\Торрент\GOODFELLAS\VIDEO_TS\VTS_02_8.VOB
Формат : MPEG-PS
Размер файла : 850 Мбайт
Продолжительность : 15 м.
Режим общего битрейта : Переменный
Общий поток : 7590 Кбит/сек
Видео
Идентификатор : 224 (0xE0)
Формат : MPEG Video
Версия формата : Version 2
Профиль формата : Main@Main
Параметр BVOP формата : Да
Параметр матрицы формата : По умолчанию
Параметр GOP формата : M=3, N=12
Продолжительность : 15 м.
Вид битрейта : Переменный
Битрейт : 5007 Кбит/сек
Максимальный битрейт : 7368 Кбит/сек
Ширина : 720 пикселей
Высота : 480 пикселей
Соотношение сторон : 16:9
Частота кадров : 23,976 кадра/сек
Стандарт вещания : NTSC
Цветовое пространство : YUV
Субдискретизация насыщенности : 4:2:0
Битовая глубина : 8 бит
Тип развёртки : Прогрессивная
Порядок развёртки : 2:3 Pulldown
Метод сжатия : С потерями
Бит/(Пиксели*Кадры) : 0.604
Временной код первого кадра : 02:09:48;28
Оригинал временного кода : Group of pictures header
Размер потока : 560 Мбайт (66%)
Аудио #1
Идентификатор : 189 (0xBD)-128 (0x80)
Формат : AC-3
Формат/Информация : Audio Coding 3
Расширение режима : CM (complete main)
Параметр Endianness формата : Big
Режим смешивания : DVD-Video
Продолжительность : 15 м.
Вид битрейта : Постоянный
Битрейт : 448 Кбит/сек
Каналы : 6 каналов
Расположение каналов : Front: L C R, Side: L R, LFE
Частота : 48,0 КГц
Битовая глубина : 16 бит
Метод сжатия : С потерями
Задержка видео : -582 мс.
Размер потока : 50,2 Мбайт (6%)
Аудио #2
Идентификатор : 189 (0xBD)-129 (0x81)
Формат : AC-3
Формат/Информация : Audio Coding 3
Расширение режима : CM (complete main)
Параметр Endianness формата : Big
Режим смешивания : DVD-Video
Продолжительность : 15 м.
Вид битрейта : Постоянный
Битрейт : 448 Кбит/сек
Каналы : 6 каналов
Расположение каналов : Front: L C R, Side: L R, LFE
Частота : 48,0 КГц
Битовая глубина : 16 бит
Метод сжатия : С потерями
Задержка видео : -582 мс.
Размер потока : 50,2 Мбайт (6%)
Аудио #3
Идентификатор : 189 (0xBD)-130 (0x82)
Формат : AC-3
Формат/Информация : Audio Coding 3
Расширение режима : CM (complete main)
Параметр Endianness формата : Big
Режим смешивания : DVD-Video
Продолжительность : 15 м.
Вид битрейта : Постоянный
Битрейт : 448 Кбит/сек
Каналы : 6 каналов
Расположение каналов : Front: L C R, Side: L R, LFE
Частота : 48,0 КГц
Битовая глубина : 16 бит
Метод сжатия : С потерями
Задержка видео : -582 мс.
Размер потока : 50,2 Мбайт (6%)
Аудио #4
Идентификатор : 189 (0xBD)-131 (0x83)
Формат : AC-3
Формат/Информация : Audio Coding 3
Расширение режима : CM (complete main)
Параметр Endianness формата : Big
Режим смешивания : DVD-Video
Продолжительность : 15 м.
Вид битрейта : Постоянный
Битрейт : 448 Кбит/сек
Каналы : 6 каналов
Расположение каналов : Front: L C R, Side: L R, LFE
Частота : 48,0 КГц
Битовая глубина : 16 бит
Метод сжатия : С потерями
Задержка видео : -582 мс.
Размер потока : 50,2 Мбайт (6%)
Аудио #5
Идентификатор : 189 (0xBD)-132 (0x84)
Формат : AC-3
Формат/Информация : Audio Coding 3
Расширение режима : CM (complete main)
Параметр Endianness формата : Big
Режим смешивания : DVD-Video
Продолжительность : 15 м.
Вид битрейта : Постоянный
Битрейт : 192 Кбит/сек
Каналы : 2 канала
Расположение каналов : Front: L R
Частота : 48,0 КГц
Битовая глубина : 16 бит
Метод сжатия : С потерями
Задержка видео : -637 мс.
Размер потока : 21,5 Мбайт (3%)
Аудио #6
Идентификатор : 189 (0xBD)-133 (0x85)
Формат : AC-3
Формат/Информация : Audio Coding 3
Расширение режима : CM (complete main)
Параметр Endianness формата : Big
Режим смешивания : DVD-Video
Продолжительность : 15 м.
Вид битрейта : Постоянный
Битрейт : 448 Кбит/сек
Каналы : 6 каналов
Расположение каналов : Front: L C R, Side: L R, LFE
Частота : 48,0 КГц
Битовая глубина : 16 бит
Метод сжатия : С потерями
Задержка видео : -582 мс.
Размер потока : 50,2 Мбайт (6%)

Скриншоты

Показать сообщения:    

Текущее время: 21-Сен 07:38

Часовой пояс: UTC - 1


Вы не можете начинать темы
Вы не можете отвечать на сообщения
Вы не можете редактировать свои сообщения
Вы не можете удалять свои сообщения
Вы не можете голосовать в опросах
Вы не можете прикреплять файлы к сообщениям
Вы не можете скачивать файлы

!ВНИМАНИЕ!
Сайт не предоставляет электронные версии произведений, а занимается лишь коллекционированием и каталогизацией ссылок, присылаемых и публикуемых на форуме нашими читателями. Если вы являетесь правообладателем какого-либо представленного материала и не желаете, чтобы ссылка на него находилась в нашем каталоге, свяжитесь с нами, и мы незамедлительно удалим ее. Файлы для обмена на трекере предоставлены пользователями сайта, и администрация не несет ответственности за их содержание. Просьба не заливать файлы, защищенные авторскими правами, а также файлы нелегального содержания!