Скудда-у! Скудда-эй! / Scudda Hoo! Scudda Hay! (Ф. Хью Херберт / F. Hugh Herbert) [1948, США, драма, мелодрама, комедия, HDTV 1080i] MVO (1 канал) + Original Eng :: Ивановский Торрент трекер
Важное объявление!
У Нас Все раздачи мультитрекерные, при нуле пиров в релизах, можете смело вставать на закачку!
Статистика раздачи
Размер:     |    Зарегистрирован:     |    Скачан:     |   
Нет
 
     
 
 
Автор Сообщение

HUNTER

Стаж:
4 года 11 месяцев
Сообщений:
66066

Репутация: 101

[+] [-]
Вне форума [Профиль] [ЛС]

Скудда-у! Скудда-эй! / Scudda Hoo! Scudda Hay!
Страна: США
Жанр: драма, мелодрама, комедия
Год выпуска: 1948
Продолжительность: 01:31:15
Перевод: Профессиональный (многоголосый закадровый) 1 канал
Cубтитры: нет
Оригинальная аудиодорожка: английский
Режиссер: Ф. Хью Херберт / F. Hugh Herbert
В ролях: Джун Хэвер, Лон МакКаллистер, Уолтер Бреннан, Энн Ревер, Натали Вуд, Роберт Карнс, Генри Халл, Том Талли, Роберт Адлер, Гай Бич
Описание: Два сводных брата живут на ферме со своей матерью. Один из них устраивается работать на ранчо к соседу, в дочь которого влюблен. Его ревнивый брат всячески пытается помешать счастью молодых людей…
Доп. информация: Запись с канала Первый HD. Из видеоряда удалены все послерекламные вставки и анонсы. Добавлена английская дорожка - пришлось сделать небольшую вставку из русской (пара фраз) на отсутствующий кусок.
Сэмпл: http://multi-up.com/1094911
Тип релиза: HDTV 1080i
Контейнер: MKV
Видео: AVC, 1920x1080 (16:9), 25.000 fps, 10.6 Mbps (0.204 bit/pixel)
Аудио: AC-3, 48.0 KHz, 2 ch, 192 Kbps, CBR (Russian) - русский
Аудио 2: AC-3, 48.0 KHz, 2 ch, 192 Kbps, CBR (Russian) - английский

MediaInfo

Общее
Уникальный идентификатор : 201036648054842981612828527130082672185 (0x973E4002AC9C75069C3F2E19BB89FE39)
Полное имя : M:\Скудда-У! Скудда-Эй!.mkv
Формат : Matroska
Версия формата : Version 2
Размер файла : 7,14 Гбайт
Продолжительность : 1 ч. 31 м.
Общий поток : 11,2 Мбит/сек
Название фильма : Скудда-у! Скудда-эй! / Scudda Hoo! Scudda Hay! (1948)
Дата кодирования : UTC 2016-03-27 11:35:52
Программа кодирования : mkvmerge v8.2.0 ('World of Adventure') 64bit
Библиотека кодирования : libebml v1.3.1 + libmatroska v1.4.2
Видео
Идентификатор : 1
Формат : AVC
Формат/Информация : Advanced Video Codec
Профиль формата : Main@L4
Параметр CABAC формата : Да
Параметр ReFrames формата : 3 кадра
Идентификатор кодека : V_MPEG4/ISO/AVC
Продолжительность : 1 ч. 31 м.
Битрейт : 10,6 Мбит/сек
Ширина : 1920 пикселей
Высота : 1080 пикселей
Соотношение сторон : 16:9
Режим частоты кадров : Постоянный
Частота кадров : 25,000 кадров/сек
Стандарт вещания : Component
Цветовое пространство : YUV
Субдискретизация насыщенности : 4:2:0
Битовая глубина : 8 бит
Тип развёртки : Чересстрочная
Метод сохранения типа развёртки : Раздельные поля
Порядок развёртки : Верхнее поле первое
Бит/(Пиксели*Кадры) : 0.204
Размер потока : 6,75 Гбайт (95%)
Default : Да
Forced : Нет
Цветовой диапазон : Limited
Основные цвета : BT.709
Характеристики трансфера : BT.709
Коэффициенты матрицы : BT.709
Аудио #1
Идентификатор : 2
Формат : AC-3
Формат/Информация : Audio Coding 3
Расширение режима : CM (complete main)
Параметр Endianness формата : Big
Идентификатор кодека : A_AC3
Продолжительность : 1 ч. 31 м.
Вид битрейта : Постоянный
Битрейт : 192 Кбит/сек
Каналы : 2 канала
Расположение каналов : Front: L R
Частота : 48,0 КГц
Частота кадров : 31,250 кадров/сек (1536 spf)
Метод сжатия : С потерями
Размер потока : 125 Мбайт (2%)
Заголовок : Профессиональный (многоголосый закадровый) 1 канал
Язык : Russian
Default : Да
Forced : Нет
Аудио #2
Идентификатор : 3
Формат : AC-3
Формат/Информация : Audio Coding 3
Расширение режима : CM (complete main)
Параметр Endianness формата : Big
Идентификатор кодека : A_AC3
Продолжительность : 1 ч. 31 м.
Вид битрейта : Постоянный
Битрейт : 192 Кбит/сек
Каналы : 2 канала
Расположение каналов : Front: L R
Частота : 48,0 КГц
Частота кадров : 31,250 кадров/сек (1536 spf)
Метод сжатия : С потерями
Размер потока : 125 Мбайт (2%)
Язык : English
Default : Нет
Forced : Нет

Скриншоты



_________________
Показать сообщения:    

Текущее время: Сегодня 13:52

Часовой пояс: GMT



Вы не можете начинать темы
Вы не можете отвечать на сообщения
Вы не можете редактировать свои сообщения
Вы не можете удалять свои сообщения
Вы не можете голосовать в опросах
Вы не можете прикреплять файлы к сообщениям
Вы не можете скачивать файлы