Важное объявление!
У Нас Все раздачи мультитрекерные, при нуле пиров в релизах, можете смело вставать на закачку!
 
Автор Сообщение

HUNTER

Стаж:
4 года 7 месяцев
Сообщений:
61554

Репутация: 101

[+] [-]
Вне форума [Профиль] [ЛС]

Скуби-Ду: Франкен-монстр | Scooby-Doo! Frankencreepy-
Страна: США
Жанр: приключения, семейный
Продолжительность: 01:13:54
Год выпуска: 2014
Перевод: Профессиональный (многоголосый закадровый)
Русские субтитры: есть
Режиссёр: Пол МакЭвой / Paul McEvoy
Роли озвучивали: Фрэнк Уэлкер, Минди Кон, Грэй Гриффин, Мэттью Лиллард, Дидрих Бадер, Ди Брэдли Бейкер, Эрик Бауза, Джефф Беннетт, Сьюзан Блэйксли, Кори Бертон-ОписаниеКомпания друзей узнаёт, что их злобные враги, которых они так долго сажали в тюрьму, вышли и объединились, теперь им нужно скрыться на время. И вот, друзья снова в своем небольшом фургоне и на всех парах едут в Пенсильванию. Прибыв туда, они решаются остановиться в замке.. Но пока друзья думали о том, какой им план разработать по собственному спасению, Скуби и Шегги уже в новые неприятности влипли.-- Работа со звуком xfiles
- Работа с BDRemux'ом -Azureus-

Релиз:

Сэмпл

IMDb: 6.90 (304)
Качество: BDRip 720p BDRemux 1080p -Azureus-
Формат: MKV
Видео: AVC 2973 Kbps 1280 x 720 (1.778) 23.976 fps
Аудио: AC-3 192 Kbps 2 channels, 48.0 KHz MVO Rus
Аудио 2: AC-3 640 Kbps 6 channels, 48.0 KHz Eng
Субтитры: русские - yaroslav230596, английские (Full, SDH) SRT

MI | Log

Log
x264 [info]: frame I:1186 Avg QP:12.90 size:152605
x264 [info]: frame P:30235 Avg QP:15.28 size: 30297
x264 [info]: frame B:74876 Avg QP:16.11 size: 7914
x264 [info]: consecutive B-frames: 5.3% 7.8% 8.6% 55.1% 8.8% 5.0% 2.0% 3.2% 0.9% 1.5% 1.8%
x264 [info]: mb I I16..4: 14.6% 45.2% 40.2%
x264 [info]: mb P I16..4: 1.8% 7.0% 3.0% P16..4: 21.0% 15.3% 9.4% 3.0% 0.7% skip:38.7%
x264 [info]: mb B I16..4: 0.3% 0.9% 0.3% B16..8: 19.7% 9.1% 2.4% direct: 2.4% skip:64.8% L0:47.5% L1:45.3% BI: 7.3%
x264 [info]: 8x8 transform intra:56.6% inter:39.8%
x264 [info]: direct mvs spatial:100.0% temporal:0.0%
x264 [info]: coded y,uvDC,uvAC intra: 67.5% 80.5% 71.3% inter: 9.7% 12.2% 7.0%
x264 [info]: i16 v,h,dc,p: 66% 12% 7% 15%
x264 [info]: i8 v,h,dc,ddl,ddr,vr,hd,vl,hu: 14% 11% 17% 8% 9% 10% 9% 11% 13%
x264 [info]: i4 v,h,dc,ddl,ddr,vr,hd,vl,hu: 18% 12% 17% 8% 10% 9% 8% 9% 10%
x264 [info]: i8c dc,h,v,p: 43% 26% 19% 12%
x264 [info]: Weighted P-Frames: Y:2.4% UV:2.1%
x264 [info]: ref P L0: 57.1% 4.9% 14.0% 6.6% 4.6% 4.4% 3.3% 2.4% 2.2% 0.5% 0.0%
x264 [info]: ref B L0: 65.7% 13.0% 7.8% 4.4% 3.5% 3.0% 1.8% 0.8%
x264 [info]: ref B L1: 90.8% 9.2%
x264 [info]: kb/s:3048.82
x264 [total]: encoded 106297 frames, 10.23 fps, 3048.82 kb/s, duration 2:53:11.35
Format : Matroska
Format version : Version 4 / Version 2
File size : 2.00 GiB
Duration : 1h 13mn
Overall bit rate : 3 883 Kbps
Encoded date : UTC 2015-06-18 22:39:44
Writing application : mkvmerge v6.7.0 ('Back to the Ground') 32bit built on Jan 8 2014 15:03:17
Writing library : libebml v1.3.0 + libmatroska v1.4.1
Video
ID : 1
Format : AVC
Format/Info : Advanced Video Codec
Format profile : High@L4.1
Format settings, CABAC : Yes
Format settings, ReFrames : 9 frames
Codec ID : V_MPEG4/ISO/AVC
Duration : 1h 13mn
Bit rate : 2 973 Kbps
Width : 1 280 pixels
Height : 720 pixels
Display aspect ratio : 16:9
Frame rate mode : Constant
Frame rate : 23.976 fps
Color space : YUV
Chroma subsampling : 4:2:0
Bit depth : 8 bits
Scan type : Progressive
Bits/(Pixel*Frame) : 0.135
Stream size : 1.54 GiB (77%)
Title : Scooby-Doo! Frankencreepy (2014) [rutracker.org]
Writing library : x264 core 146 r2538kMod 121396c
Encoding settings : cabac=1 / ref=9 / deblock=1:-3:-2 / analyse=0x3:0x133 / me=umh / subme=11 / psy=1 / fade_compensate=0.00 / psy_rd=1.00:0.05 / mixed_ref=1 / me_range=32 / chroma_me=1 / trellis=2 / 8x8dct=1 / cqm=0 / deadzone=21,11 / fast_pskip=0 / chroma_qp_offset=-3 / threads=12 / lookahead_threads=3 / sliced_threads=0 / nr=0 / decimate=1 / interlaced=0 / bluray_compat=0 / constrained_intra=0 / fgo=0 / bframes=10 / b_pyramid=2 / b_adapt=2 / b_bias=0 / direct=3 / weightb=1 / open_gop=0 / weightp=2 / keyint=250 / keyint_min=23 / scenecut=40 / intra_refresh=0 / rc_lookahead=80 / rc=crf / mbtree=0 / crf=17.1000 / qcomp=0.60 / qpmin=0 / qpmax=69 / qpstep=4 / vbv_maxrate=50000 / vbv_bufsize=62500 / crf_max=0.0 / nal_hrd=none / filler=0 / ip_ratio=1.40 / pb_ratio=1.30 / aq=3:0.90
Language : English
Default : Yes
Forced : No
Audio #1
ID : 2
Format : AC-3
Format/Info : Audio Coding 3
Mode extension : CM (complete main)
Format settings, Endianness : Big
Codec ID : A_AC3
Duration : 1h 13mn
Bit rate mode : Constant
Bit rate : 192 Kbps
Channel(s) : 2 channels
Channel positions : Front: L R
Sampling rate : 48.0 KHz
Bit depth : 16 bits
Compression mode : Lossy
Stream size : 101 MiB (5%)
Title : MVO
Language : Russian
Default : Yes
Forced : No
Audio #2
ID : 3
Format : AC-3
Format/Info : Audio Coding 3
Mode extension : CM (complete main)
Format settings, Endianness : Big
Codec ID : A_AC3
Duration : 1h 13mn
Bit rate mode : Constant
Bit rate : 640 Kbps
Channel(s) : 6 channels
Channel positions : Front: L C R, Side: L R, LFE
Sampling rate : 48.0 KHz
Bit depth : 16 bits
Compression mode : Lossy
Stream size : 338 MiB (16%)
Title : Original
Language : English
Default : No
Forced : No
Text #1
ID : 4
Format : UTF-8
Codec ID : S_TEXT/UTF8
Codec ID/Info : UTF-8 Plain Text
Title : Full
Language : Russian
Default : No
Forced : No
Text #2
ID : 5
Format : UTF-8
Codec ID : S_TEXT/UTF8
Codec ID/Info : UTF-8 Plain Text
Title : Full
Language : English
Default : No
Forced : No
Text #3
ID : 6
Format : UTF-8
Codec ID : S_TEXT/UTF8
Codec ID/Info : UTF-8 Plain Text
Title : SDH
Language : English
Default : No
Forced : No
Menu
00:00:00.000 : en:Chapter 01
00:10:11.652 : en:Chapter 02
00:19:45.642 : en:Chapter 03
00:30:25.406 : en:Chapter 04
00:40:27.883 : en:Chapter 05
00:49:50.946 : en:Chapter 06
01:01:24.847 : en:Chapter 07
01:08:19.178 : en:Chapter 08
01:11:14.019 : en:Chapter 09[/pre]

Скриншоты




_________________
Показать сообщения:    

Текущее время: Сегодня 04:07

Часовой пояс: GMT



Вы не можете начинать темы
Вы не можете отвечать на сообщения
Вы не можете редактировать свои сообщения
Вы не можете удалять свои сообщения
Вы не можете голосовать в опросах
Вы не можете прикреплять файлы к сообщениям
Вы не можете скачивать файлы
Наши партнеры: интернет магазин Ивановского трикотажа textilla.ru