Важное объявление!
У Нас Все раздачи мультитрекерные, при нуле пиров в релизах, можете смело вставать на закачку!
Статистика раздачи
Размер:     |    Зарегистрирован:     |    Скачан:     |   
Нет
 
     
 
 
Автор Сообщение

HUNTER

Стаж:
5 лет
Сообщений:
67947

Репутация: 101

[+] [-]
Вне форума [Профиль] [ЛС]

Скуби-Ду! Тайна рестлмании / Scooby-Doo! WrestleMania Mystery
Страна: США
Жанр: Мультипликация
Продолжительность: 01:23:38
Год выпуска: 2014
Перевод: Любительский (одноголосый закадровый)
Русские субтитры: есть-Режиссёр: Брэндон Виетти / Brandon Vietti
Роли озвучивали: Мэттью Лиллард, Джон Ди Маджио, Грэй ДеЛисл, Фрэнк Уэлкер, Пол Левески, Трэвис Уиллингэм, Глен Джейкобс, Майк Мизанин, Минди Кон, Винс МакМахон-Описание: Новый искрометный мультфильм «Скуби-Ду – Тайна рестлмании» опять готов порадовать своих преданных зрителей. Чем же так уникален очередной захватывающий эпизод мультфильма про очаровательную собаку Скуби-Ду? А тем, что именно в этой части Вас ждут очень увлекательные путешествия наших главных героев в логово рестлмании. Что же такое Рестмалния – это театральные бои на ринге, когда бойцы изображают драку, хотя на самом деле – это лишь одна большая постановка, в этих схватках почти нет ничего опасного. Будут ли они сами участвовать в постановочных боях или же все будет намного серьезнее? Как и все остальные части, эта не стала исключением, и все также приковывает своих зрителей к экранам. Конечно, этот мультфильм наиболее понравится тем, кто постоянно следит за Скуби-Ду и за тем, куда он постоянно попадает. В этом эпизоде будет много острых шуток и комичных ситуаций, в которые герои попадают почти каждую минуту. И поверьте – ваши ожидания себя обязательно оправдают, разве может кому-то не понравится очаровательный Скуби-Ду?-Качество: WEB-DL
Формат: MKV
Видео: AVC, 1280x718 (16:9), 23.976 fps, 3 960 Kbps (0.180 bit/pixel)
Аудио 1: AC-3, 48.0 KHz, 2 ch, 320 Kbps, CBR (Russian)
Аудио 2: AC-3, 48.0 KHz, 6 ch, 384 Kbps, CBR (English)
Субтитры: Russian, English
Семпл: Забираем тут

Подробные технические данные

Общее
Уникальный идентификатор : 223151578747984416262445791548280362345 (0xA7E16E469A24F123971C724A83775569)
Полное имя : G:\Scooby.Doo.Wrestlemania.Mystery.2014.720p.WEB-DL.H264-PublicHD\Scooby.Doo.Wrestlemania.Mystery 2014 720p WEB-DL.mkv
Формат : Matroska
Версия формата : Version 4 / Version 2
Размер файла : 2,78 Гбайт
Продолжительность : 1 ч. 23 м.
Общий поток : 4759 Кбит/сек
Дата кодирования : UTC 2014-03-17 13:55:17
Программа кодирования : mkvmerge v6.7.0 ('Back to the Ground') 32bit built on Jan 8 2014 15:03:17
Библиотека кодирования : libebml v1.3.0 + libmatroska v1.4.1
Видео
Идентификатор : 1
Формат : AVC
Формат/Информация : Advanced Video Codec
Профиль формата : High@L3.1
Параметр CABAC формата : Нет
Параметр ReFrames формата : 2 кадра
Идентификатор кодека : V_MPEG4/ISO/AVC
Продолжительность : 1 ч. 23 м.
Битрейт : 3960 Кбит/сек
Ширина : 1280 пикселей
Высота : 718 пикселей
Соотношение сторон : 16:9
Режим частоты кадров : Постоянный
Частота кадров : 23,976 кадра/сек
Цветовое пространство : YUV
Субдискретизация насыщенности : 4:2:0
Битовая глубина : 8 бит
Тип развёртки : Прогрессивная
Бит/(Пиксели*Кадры) : 0.180
Размер потока : 2,31 Гбайт (83%)
Язык : English
Default : Да
Forced : Нет
Основные цвета : BT.709
Характеристики трансфера : BT.709
Коэффициенты матрицы : BT.709
Аудио #1
Идентификатор : 2
Формат : AC-3
Формат/Информация : Audio Coding 3
Расширение режима : CM (complete main)
Параметр Endianness формата : Big
Идентификатор кодека : A_AC3
Продолжительность : 1 ч. 23 м.
Вид битрейта : Постоянный
Битрейт : 320 Кбит/сек
Каналы : 2 канала
Расположение каналов : Front: L R
Частота : 48,0 КГц
Битовая глубина : 16 бит
Метод сжатия : С потерями
Размер потока : 192 Мбайт (7%)
Язык : Russian
Default : Да
Forced : Нет
Аудио #2
Идентификатор : 3
Формат : AC-3
Формат/Информация : Audio Coding 3
Расширение режима : CM (complete main)
Параметр Endianness формата : Big
Идентификатор кодека : A_AC3
Продолжительность : 1 ч. 23 м.
Вид битрейта : Постоянный
Битрейт : 384 Кбит/сек
Каналы : 6 каналов
Расположение каналов : Front: L C R, Side: L R, LFE
Частота : 48,0 КГц
Битовая глубина : 16 бит
Метод сжатия : С потерями
Размер потока : 230 Мбайт (8%)
Язык : English
Default : Нет
Forced : Нет
Текст #1
Идентификатор : 4
Формат : UTF-8
Идентификатор кодека : S_TEXT/UTF8
Идентификатор кодека/Информация : UTF-8 Plain Text
Язык : Russian
Default : Нет
Forced : Нет
Текст #2
Идентификатор : 5
Формат : UTF-8
Идентификатор кодека : S_TEXT/UTF8
Идентификатор кодека/Информация : UTF-8 Plain Text
Язык : English
Default : Нет
Forced : Нет
Меню
00:00:00.000 : en:1.
00:09:58.000 : en:2.
00:19:35.000 : en:3.
00:29:48.000 : en:4.
00:39:53.000 : en:5.
00:49:27.000 : en:6.
00:59:56.000 : en:7.
01:08:27.000 : en:8.
01:20:50.000 : en:9.

Скриншоты



_________________
Показать сообщения:    

Текущее время: Сегодня 14:54

Часовой пояс: GMT



Вы не можете начинать темы
Вы не можете отвечать на сообщения
Вы не можете редактировать свои сообщения
Вы не можете удалять свои сообщения
Вы не можете голосовать в опросах
Вы не можете прикреплять файлы к сообщениям
Вы не можете скачивать файлы