Ивановский Торрент трекер
Яндекс.Погода
 

[Цитировать]
HUNTER

Скуби-Ду! Под куполом цирка / Big Top Scooby-Doo!
Страна: США
Жанр: Мультипликация
Продолжительность: 01:20:27
Год выпуска: 2012
Перевод 1: Профессиональный (дублированный) [Русский]
Перевод 2: Профессиональный (многоголосый закадровый) [Украинский]
Русские субтитры: есть-Режиссёр: Бен Джонс / Ben Jones
Роли озвучивали: Фрэнк Уэлкер, Минди Кон, Грей ДеЛисл, Мэттью Лиллард, Джесс Харнелл-Описание: В этом фильме вы увидите как группа друзей отправляется в Антлантик-Сити с целью посетить цирк. Развлекаясь в отпуске, отдыхая в этих тихих краях, они даже не подозревают, что в этом месте может находится опасное и злое чудище - оборотень. Команде приходится заняться обыденными вещами, работой, которая у них лучше всего получается. Им придется работать под прикрытием, с целью выкрыть оборотня, который угрожает городу. Фреду придется освоить навыки воздушного гимнаста, Дафна - клоун, Велма - переоделась в человека-ракету, а Скуби - необыкновенная собака, которая может исполнять тяжелые трюки. Теперь команда готова разоблачить оборотня и спасти цирк...-Релиз от -
Спасибо за помощь в создании релиза x-files, yaroslav230596
В русском дубляже отсутствует примерно 2 минуты перевода, на непереведенную часть - субтитры!-Качество: BDRip
Формат: MKV
Видео: AVC, 1920x1080 (16:9), 23.976 fps, 6 267 Kbps (0.126 bit/pixel)
Аудио 1: AC-3, 48.0 KHz, 2 ch, 192 Kbps, CBR (Russian) [Студия "Пифагор"]
Аудио 2: AC-3, 48.0 KHz, 2 ch, 192 Kbps, CBR (Ukrainian) [телеканал ICTV]
Аудио 3: DTS, 48.0 KHz, 6 ch, 1 509 Kbps, CBR (English)
Субтитры: English, Russian (на непереведенные места)
Семпл: Забираем тут

Подробные технические данные

бщееУникальный идентификатор : 170741144636235154288024769405735696925 (0x80738C5EA8CE172C82F6C09215EC7A1D)Полное имя : Big Top Scooby-Doo 2012 BDRip 1080p.mkvФормат : MatroskaВерсия формата : Version 4 / Version 2Размер файла : 4,59 ГбайтПродолжительность : 1 ч. 20 м.Общий поток : 8163 Кбит/секДата кодирования : UTC 2016-10-06 13:12:36Программа кодирования : mkvmerge v8.8.0 ('Wind at my back') 64bitБиблиотека кодирования : libebml v1.3.3 + libmatroska v1.4.4
ВидеоИдентификатор : 1Формат : AVCФормат/Информация : Advanced Video CodecПрофиль формата : High@L4.1Параметр CABAC формата : ДаПараметр ReFrames формата : 4 кадраИдентификатор кодека : V_MPEG4/ISO/AVCПродолжительность : 1 ч. 20 м.Битрейт : 6267 Кбит/секШирина : 1920 пикселейВысота : 1080 пикселейСоотношение сторон : 16:9Режим частоты кадров : ПостоянныйЧастота кадров : 23,976 кадра/секЦветовое пространство : YUVСубдискретизация насыщенности : 4:2:0Битовая глубина : 8 битТип развёртки : ПрогрессивнаяБит/(Пиксели*Кадры) : 0.126Размер потока : 3,52 Гбайт (77%)Библиотека кодирования : x264 core 148 r2692 64f4e24Настройки программы : cabac=1 / ref=4 / deblock=1:0:0 / analyse=0x3:0x133 / me=umh / subme=7 / psy=1 / psy_rd=1.00:0.00 / mixed_ref=1 / me_range=16 / chroma_me=1 / trellis=1 / 8x8dct=1 / cqm=0 / deadzone=21,11 / fast_pskip=0 / chroma_qp_offset=-2 / threads=24 / lookahead_threads=4 / sliced_threads=0 / nr=0 / decimate=1 / interlaced=0 / bluray_compat=0 / constrained_intra=0 / bframes=3 / b_pyramid=2 / b_adapt=1 / b_bias=0 / direct=1 / weightb=1 / open_gop=0 / weightp=2 / keyint=250 / keyint_min=23 / scenecut=40 / intra_refresh=0 / rc_lookahead=40 / rc=2pass / mbtree=1 / bitrate=6267 / ratetol=1.0 / qcomp=0.60 / qpmin=0 / qpmax=69 / qpstep=4 / cplxblur=20.0 / qblur=0.5 / ip_ratio=1.40 / aq=1:1.00Язык : EnglishDefault : ДаForced : Нет
Аудио #1Идентификатор : 2Формат : AC-3Формат/Информация : Audio Coding 3Расширение режима : CM (complete main)Параметр Endianness формата : BigИдентификатор кодека : A_AC3Продолжительность : 1 ч. 20 м.Вид битрейта : ПостоянныйБитрейт : 192 Кбит/секКаналы : 2 каналаРасположение каналов : Front: L RЧастота : 48,0 КГцЧастота кадров : 31,250 кадров/сек (1536 spf)Метод сжатия : С потерямиРазмер потока : 110 Мбайт (2%)Язык : RussianDefault : ДаForced : Нет
Аудио #2Идентификатор : 3Формат : AC-3Формат/Информация : Audio Coding 3Расширение режима : CM (complete main)Параметр Endianness формата : BigИдентификатор кодека : A_AC3Продолжительность : 1 ч. 20 м.Вид битрейта : ПостоянныйБитрейт : 192 Кбит/секКаналы : 2 каналаРасположение каналов : Front: L RЧастота : 48,0 КГцЧастота кадров : 31,250 кадров/сек (1536 spf)Метод сжатия : С потерямиРазмер потока : 110 Мбайт (2%)Язык : UkrainianDefault : НетForced : Нет
Аудио #3Идентификатор : 4Формат : DTSФормат/Информация : Digital Theater SystemsРежим : 16Параметр Endianness формата : BigИдентификатор кодека : A_DTSПродолжительность : 1 ч. 20 м.Вид битрейта : ПостоянныйБитрейт : 1509 Кбит/секКаналы : 6 каналовРасположение каналов : Front: L C R, Side: L R, LFEЧастота : 48,0 КГцЧастота кадров : 93,750 кадра/сек (512 spf)Битовая глубина : 24 битМетод сжатия : С потерямиРазмер потока : 869 Мбайт (18%)Язык : EnglishDefault : НетForced : Нет
Текст #1Идентификатор : 5Формат : UTF-8Идентификатор кодека : S_TEXT/UTF8Идентификатор кодека/Информация : UTF-8 Plain TextПродолжительность : 2 м. 15 с.Битрейт : 127 бит/секCount of elements : 34Размер потока : 2,11 Кбайт (0%)Язык : RussianDefault : ДаForced : Да
Текст #2Идентификатор : 6Формат : UTF-8Идентификатор кодека : S_TEXT/UTF8Идентификатор кодека/Информация : UTF-8 Plain TextПродолжительность : 1 ч. 19 м.Битрейт : 60 бит/секCount of elements : 1105Размер потока : 35,2 Кбайт (0%)Язык : EnglishDefault : НетForced : Нет
Меню00:00:00.000 : en:00:00:00.00000:04:26.099 : en:00:04:26.09900:16:31.073 : en:00:16:31.07300:26:01.059 : en:00:26:01.05900:38:25.553 : en:00:38:25.55300:49:28.549 : en:00:49:28.54900:58:22.499 : en:00:58:22.49901:09:33.503 : en:01:09:33.50301:18:07.099 : en:01:18:07.099

Скриншоты




Показать сообщения:    

Текущее время: 16-Дек 11:15

Часовой пояс: UTC ± 0


Вы не можете начинать темы
Вы не можете отвечать на сообщения
Вы не можете редактировать свои сообщения
Вы не можете удалять свои сообщения
Вы не можете голосовать в опросах
Вы не можете прикреплять файлы к сообщениям
Вы не можете скачивать файлы

!ВНИМАНИЕ!
Сайт не предоставляет электронные версии произведений, а занимается лишь коллекционированием и каталогизацией ссылок, присылаемых и публикуемых на форуме нашими читателями. Если вы являетесь правообладателем какого-либо представленного материала и не желаете, чтобы ссылка на него находилась в нашем каталоге, свяжитесь с нами, и мы незамедлительно удалим ее. Файлы для обмена на трекере предоставлены пользователями сайта, и администрация не несет ответственности за их содержание. Просьба не заливать файлы, защищенные авторскими правами, а также файлы нелегального содержания!