Скуби-Ду! Маска голубого сокола / Scooby-Doo! Mask of the Blue Falcon (Майкл Гогуэн / Michael Goguen) [2012, мультфильм, приключения, семейный, HDRip] Dub + Eng + Sub (rus, eng) :: Ивановский Торрент трекер
Важное объявление!
У Нас Все раздачи мультитрекерные, при нуле пиров в релизах, можете смело вставать на закачку!
Статистика раздачи
Размер:     |    Зарегистрирован:     |    Скачан:     |   
Нет
 
     
 
 
Автор Сообщение

HUNTER

Стаж:
4 года 11 месяцев
Сообщений:
66116

Репутация: 101

[+] [-]
Вне форума [Профиль] [ЛС]

Скуби-Ду! Маска голубого сокола / Scooby-Doo! Mask of the Blue Falcon-
Страна: США
Жанр: мультфильм, приключения, семейный
Год выпуска: 2012
Продолжительность: 01:16:29
Перевод: Профессиональный (полное дублирование)
Субтитры: Нет-Режиссер: Майкл Гогуэн / Michael Goguen-Описание: Когда ужасный злодей мистер Хайд выпускает летучих мышей-монстров, воющих гончих и зловещую слизь на праздник, наступает время для Корпорации Тайны - разгадывать загадки и расставлять ловушки на монстров.
Но наевшаяся пиццы, супер-заряженная команда Шегги и Скуби-Ду должны раскрыть в себе внутренних супергероев, чтобы остановить эту удушающую, омерзительную зеленую слизь!
-Рейтинг:
-Мировая премьера: 15 декабря 2012
Релиз на DVD: 28 февраля 2013, «CP Дистрибуция»-Релиз: -Семпл-Качество: HDRip [Scooby-Doo!Mask.of.the.Blue.Falcon.2012.1080р.BluRay.Rus.Eng.HDCLUB-xmad]
Формат: AVI
Видео: 720x400 (1.80:1), 23.976 fps, XviD build 65 ~2079 kbps avg, 0.30 bit/pixel
Аудио: 48 kHz, AC3 Dolby Digital, 2/0 (L,R) ch, ~192 kbps - Rus
Аудио 2: 48 kHz, AC3 Dolby Digital, 3/2 (L,C,R,l,r) + LFE ch, ~448 kbps - Eng
Субтитры: Русские (Srt), Английские (Srt)
-

MI

Format : AVIFormat/Info : Audio Video InterleaveFile size : 1.46 GiBDuration : 1h 16mnOverall bit rate : 2 735 KbpsWriting application : VirtualDubMod 1.5.10.3 | www.virtualdub-fr.org || (build 2550/release)Writing library : VirtualDubMod build 2550/release
VideoID : 0Format : MPEG-4 VisualFormat profile : Advanced Simple@L5Format settings, BVOP : 2Format settings, QPel : NoFormat settings, GMC : No warppointsFormat settings, Matrix : CustomCodec ID : XVIDCodec ID/Hint : XviDDuration : 1h 16mnBit rate : 2 081 KbpsWidth : 720 pixelsHeight : 400 pixelsDisplay aspect ratio : 16:9Frame rate : 23.976 fpsColor space : YUVChroma subsampling : 4:2:0Bit depth : 8 bitsScan type : ProgressiveCompression mode : LossyBits/(Pixel*Frame) : 0.301Stream size : 1.11 GiB (76%)Writing library : XviD 65
Audio #1ID : 1Format : AC-3Format/Info : Audio Coding 3Mode extension : CM (complete main)Format settings, Endianness : BigCodec ID : 2000Duration : 1h 16mnBit rate mode : ConstantBit rate : 192 KbpsChannel count : 2 channelsChannel positions : Front: L RSampling rate : 48.0 KHzBit depth : 16 bitsCompression mode : LossyStream size : 105 MiB (7%)Alignment : Split accross interleavesInterleave, duration : 42 ms (1.00 video frame)Interleave, preload duration : 500 ms
Audio #2ID : 2Format : AC-3Format/Info : Audio Coding 3Mode extension : CM (complete main)Format settings, Endianness : BigCodec ID : 2000Duration : 1h 16mnBit rate mode : ConstantBit rate : 448 KbpsChannel count : 6 channelsChannel positions : Front: L C R, Side: L R, LFESampling rate : 48.0 KHzBit depth : 16 bitsCompression mode : LossyStream size : 245 MiB (16%)Alignment : Split accross interleavesInterleave, duration : 42 ms (1.00 video frame)Interleave, preload duration : 500 ms
Все раздачи с полнометражными мультфильмами Скуби-Ду!

_________________
Показать сообщения:    

Текущее время: Сегодня 08:58

Часовой пояс: GMT



Вы не можете начинать темы
Вы не можете отвечать на сообщения
Вы не можете редактировать свои сообщения
Вы не можете удалять свои сообщения
Вы не можете голосовать в опросах
Вы не можете прикреплять файлы к сообщениям
Вы не можете скачивать файлы