Важное объявление!
У Нас Все раздачи мультитрекерные, при нуле пиров в релизах, можете смело вставать на закачку!
 
Автор Сообщение

HUNTER

Стаж:
4 года 8 месяцев
Сообщений:
62102

Репутация: 101

[+] [-]
Вне форума [Профиль] [ЛС]

Скуби-Ду! Лунный безумный монстр / Скуби-Ду! Безумие Лунного Монстра / Scooby-Doo! Moon Monster Madness-
Страна: США
Жанр: мультфильм
Год выпуска: 2015
Продолжительность: 01:19:36
Перевод: Профессиональный (многоголосый, закадровый)
Русские субтитры: Нет-Режиссер: Пол МакЭвой / Paul McEvoy-Описание: Один гигантский шаг для собаки, ведь Скуби-Ду и его команда стартуют в эпическое неземное приключение! После выигрыша последних 5 мест в лотерее Скуби-Ду, Шегги, Фред, Дафни и Велма отправляются в космос на новом космическом корабле миллионера Слая Бэрона - "Sly Star One". Все идет легко и весело, пока загадочный пришелец не начинает разрушать корабль! Поскольку корабль приходит в негодность, команда вынуждена высадиться на базу Слая Бэрона... на темной стороне луны!
Раскроет ли команда эту инопланетную тайну?
Найдут ли Скуби-Ду и Шегги снэки на луне?
Снимет ли Фред когда-нибудь свой космический шлем?!
Отправляйтесь в путешествие в открытый космос со Скуби-Ду, чтобы выяснить это!-Рейтинг:

Релиз: -Семпл-Качество: WEB-DLRip
Формат: AVI
Видео: 656x368 (1.78:1), 23.976 fps, XviD build 65 ~1168 kbps avg, 0.20 bit/pixel
Аудио: 48 kHz, MPEG Layer 3, 2 ch, ~128.00 kbps avg
Субтитры: Отсутствуют-

MI

Format : AVIFormat/Info : Audio Video InterleaveFile size : 744 MiBDuration : 1h 19mnOverall bit rate : 1 306 KbpsWriting application : VirtualDubMod 1.5.10.3 | www.virtualdub-fr.org || (build 2550/release)Writing library : VirtualDubMod build 2550/release
VideoID : 0Format : MPEG-4 VisualFormat profile : Advanced Simple@L5Format settings, BVOP : 2Format settings, QPel : NoFormat settings, GMC : No warppointsFormat settings, Matrix : CustomCodec ID : XVIDCodec ID/Hint : XviDDuration : 1h 19mnBit rate : 1 169 KbpsWidth : 656 pixelsHeight : 368 pixelsDisplay aspect ratio : 16:9Frame rate : 23.976 fpsColor space : YUVChroma subsampling : 4:2:0Bit depth : 8 bitsScan type : ProgressiveCompression mode : LossyBits/(Pixel*Frame) : 0.202Stream size : 665 MiB (89%)Writing library : XviD 65
AudioID : 1Format : MPEG AudioFormat version : Version 1Format profile : Layer 3Codec ID : 55Codec ID/Hint : MP3Duration : 1h 19mnBit rate mode : ConstantBit rate : 128 KbpsChannel(s) : 2 channelsSampling rate : 48.0 KHzCompression mode : LossyStream size : 72.9 MiB (10%)Alignment : Aligned on interleavesInterleave, duration : 42 ms (1.00 video frame)Interleave, preload duration : 504 msWriting library : LAME3.99rEncoding settings : -m s -V 4 -q 2 -lowpass 17 -b 128
Все раздачи мультфильма!

_________________
Показать сообщения:    

Текущее время: Сегодня 08:55

Часовой пояс: GMT



Вы не можете начинать темы
Вы не можете отвечать на сообщения
Вы не можете редактировать свои сообщения
Вы не можете удалять свои сообщения
Вы не можете голосовать в опросах
Вы не можете прикреплять файлы к сообщениям
Вы не можете скачивать файлы
Наши партнеры: интернет магазин Ивановского трикотажа textilla.ru