Важное объявление!
У Нас Все раздачи мультитрекерные, при нуле пиров в релизах, можете смело вставать на закачку!
 
Автор Сообщение

HUNTER

Стаж:
4 года 11 месяцев
Сообщений:
66009

Репутация: 101

[+] [-]
Вне форума [Профиль] [ЛС]

Скуби-Ду! Легенда о Фантозавре / Скуби-Ду: Нападение Пантазаура / Scooby-Doo! Legend of the Phantosaur
Год выпуска: 2011
Страна: США
Жанр: Мультфильм
Продолжительность: 1:15:16
Перевод: Авторский (одноголосый закадровый), Антон Карповский
Cубтитры: нет
Режиссер: Этан Сполдинг / Ethan Spaulding
В ролях: Фрэнк Уэлкер /Frank Welker/, Минди Кон /Mindy Cohn/, Грэй ДеЛисл /Grey DeLisle/, Мэттью Лиллард /Matthew Lillard/, Кэти Кавадини /Cathy Cavadini/, Джон Ди Маджио /John Di Maggio/
Описание: На этот раз герои мультфильма отправятся отдыхать. Впереди их ждет отель, где Скуби-Ду и Шэгги намерены хорошенько расслабиться. Однако, здесь им придется столкнуться с ужасным Пантазауром, древним монстром, которого, как гласит легенда, вызвали еще индейцы, коренные жители Америки, чтобы прогнать испанских конкистадоров.
Качество видео: BDRip
Формат: AVI
Видео кодек: XviD
Аудио кодек: AC3
Видео: 720x400, 23,976 fps, 2327 kbps
Аудио: 48000Hz, DD 5.1, 448 kbps
Скачать: SAMPLE 33.10MB
Доп. информация: За перевод, данного фильма у Антона Карповского, выражается благодарность пользователям форума piratca: Guyver, dunhill200, SavineX, zetrob, Dr. Destructo, pestel, feldeger (+1), shitman82, Kampfer161.
P.S.: Всех кто располагает переводами Антона Карповского попрошу в эту тему.
MediaInfo
Формат : AVI
Формат/Информация : Audio Video Interleave
Размер файла : 1,46 Гбайт
Продолжительность : 1 ч. 15 м.
Общий поток : 2785 Кбит/сек
Программа кодирования : VirtualDubMod 1.5.4.1 (build 2178/release)
Библиотека кодирования : VirtualDubMod build 2178/release
Видео
Идентификатор : 0
Формат : MPEG-4 Visual
Профиль формата : Advanced Simple@L5
Параметр BVOP формата : 1
Параметр QPel формата : Нет
Параметр GMC формата : Без точки перехода
Параметр матрицы формата : Default (MPEG)
Идентификатор кодека : XVID
Идентификатор кодека/Подсказка : XviD
Продолжительность : 1 ч. 15 м.
Битрейт : 2327 Кбит/сек
Ширина : 720 пикселей
Высота : 400 пикселей
Соотношение сторон : 16:9
Частота кадров : 23,976 кадра/сек
Цветовое пространство : YUV
Субдискретизация насыщенности : 4:2:0
Битовая глубина : 8 бит
Тип развёртки : Прогрессивная
Метод сжатия : С потерями
Бит/(Пиксели*Кадры) : 0.337
Размер потока : 1,22 Гбайт (84%)
Библиотека кодирования : XviD 1.2.1 (UTC 2008-12-04)
Аудио
Идентификатор : 1
Формат : AC-3
Формат/Информация : Audio Coding 3
Расширение режима : CM (complete main)
Параметр Endianness формата : Big
Идентификатор кодека : 2000
Продолжительность : 1 ч. 15 м.
Вид битрейта : Постоянный
Битрейт : 448 Кбит/сек
Каналы : 6 каналов
Расположение каналов : Front: L C R, Side: L R, LFE
Частота : 48,0 КГц
Битовая глубина : 16 бит
Метод сжатия : С потерями
Размер потока : 241 Мбайт (16%)
Выравнивание : Разделение по промежуткам
Продолжительность промежутка : 42 мс. (1,00 видеокадр)
Время предзагрузки промежутка : 500 мс.
Скриншоты

_________________
Показать сообщения:    

Текущее время: Сегодня 18:55

Часовой пояс: GMT



Вы не можете начинать темы
Вы не можете отвечать на сообщения
Вы не можете редактировать свои сообщения
Вы не можете удалять свои сообщения
Вы не можете голосовать в опросах
Вы не можете прикреплять файлы к сообщениям
Вы не можете скачивать файлы