Ивановский Торрент трекер
Яндекс.Погода
 

[Цитировать]
HUNTER

Скуби-Ду! Легенда о Пантазауре / Legend of the Phantosaur-Год выпуска: 2011
Страна: США
Жанр: Мультипликация
Продолжительность: 01:15:14
Перевод: Одноголосый закадровый
Субтитры: Английские-Роли озвучивали: Лоретта Дивайн, Фрэнк Уэлкер, Мэттью Лиллард, Фред Татаскьор, Сумали Монтано, Лора Бэйли, Марк Хэмилл, Коллин О’Шонесси, Кевин Майкл Ричардсон-Режиссёр: Дуглас Лангдэйл / Douglas Langdale-Описание: На этот раз герои мультфильма отправятся отдыхать. Впереди их ждет отель, где Скуби-Ду и Шэгги намерены хорошенько расслабиться. Однако, здесь им придется столкнуться с ужасным Пантазауром, древним монстром, которого, как гласит легенда, вызвали еще индейцы, коренные жители Америки, чтобы прогнать испанских конкистадоров.-Качество: BDRip 720p
Формат: MKV
Видео кодек: x264
Аудио кодек: Russian: AC3 / English: DTS
Видео: AVC, 1280x720 (16/9), 23.976 fps, 6 808 Kbps (0.300 bit/pixel)
Аудио 1: AC-3, 48 KHz, 2 ch, 192 Kbps, CBR (Russian)
Аудио 2: DTS, 48.0 KHz, 6 ch, 1 510 Kbps, CBR (English) -

MediaInfo

Код: copyText_writeLink('this.parentNode.parentNode.nextSibling.nextSibling'); Общее
Уникальный идентификатор : 225248354185877531335903229194770011362 (0xA9754149526382FF868423704FC354E2)
Полное имя : H:\Rustorka\Scooby Doo Legend of the Phantosaur 2011 x264 BDRip 720p.mkv
Формат : Matroska
Версия формата : Version 2
Размер файла : 4,47 Гбайт
Продолжительность : 1 ч. 15 м.
Общий поток : 8510 Кбит/сек
Дата кодирования : UTC 2011-10-26 12:48:50
Программа кодирования : mkvmerge v2.9.7 ('Tenderness') built on Jul 1 2009 18:43:35
Библиотека кодирования : libebml v0.7.7 + libmatroska v0.8.1
Видео
Идентификатор : 1
Формат : AVC
Формат/Информация : Advanced Video Codec
Профиль формата : High@L4.1
Параметр CABAC формата : Да
Параметр ReFrames формата : 5 кадров
Идентификатор кодека : V_MPEG4/ISO/AVC
Продолжительность : 1 ч. 15 м.
Битрейт : 6808 Кбит/сек
Ширина : 1280 пикселей
Высота : 720 пикселей
Соотношение сторон : 16:9
Частота кадров : 23,976 кадра/сек
Цветовое пространство : YUV
Субдискретизация насыщенности : 4:2:0
Битовая глубина : 8 бит
Тип развёртки : Прогрессивная
Бит/(Пиксели*Кадры) : 0.308
Размер потока : 3,49 Гбайт (78%)
Библиотека кодирования : x264 core 118 r2085 8a62835
Настройки программы : cabac=1 / ref=5 / deblock=1:-1:-1 / analyse=0x3:0x112 / me=umh / subme=7 / psy=1 / psy_rd=1.00:0.00 / mixed_ref=1 / me_range=16 / chroma_me=1 / trellis=1 / 8x8dct=1 / cqm=0 / deadzone=21,11 / fast_pskip=0 / chroma_qp_offset=-2 / threads=12 / sliced_threads=0 / nr=0 / decimate=1 / interlaced=0 / bluray_compat=0 / constrained_intra=0 / bframes=3 / b_pyramid=2 / b_adapt=2 / b_bias=0 / direct=1 / weightb=1 / open_gop=0 / weightp=2 / keyint=250 / keyint_min=23 / scenecut=40 / intra_refresh=0 / rc_lookahead=40 / rc=2pass / mbtree=1 / bitrate=6808 / ratetol=1.0 / qcomp=0.60 / qpmin=0 / qpmax=69 / qpstep=4 / cplxblur=20.0 / qblur=0.5 / ip_ratio=1.40 / aq=1:1.00
Язык : English
Default : Да
Forced : Нет
Аудио #1
Идентификатор : 3
Формат : DTS
Формат/Информация : Digital Theater Systems
Идентификатор кодека : A_DTS
Продолжительность : 1 ч. 15 м.
Вид битрейта : Постоянный
Битрейт : 1510 Кбит/сек
Каналы : 6 каналов
Расположение каналов : Front: L C R, Side: L R, LFE
Частота : 48,0 КГц
Битовая глубина : 24 бит
Метод сжатия : С потерями
Задержка видео : 11 мс.
Размер потока : 813 Мбайт (18%)
Заголовок : DTS
Язык : English
Default : Нет
Forced : Нет
Аудио #2
Идентификатор : 5
Формат : AC-3
Формат/Информация : Audio Coding 3
Расширение режима : CM (complete main)
Идентификатор кодека : A_AC3
Продолжительность : 1 ч. 15 м.
Вид битрейта : Постоянный
Битрейт : 192 Кбит/сек
Каналы : 2 канала
Расположение каналов : Front: L R
Частота : 48,0 КГц
Битовая глубина : 16 бит
Метод сжатия : С потерями
Размер потока : 103 Мбайт (2%)
Заголовок : VO
Язык : Russian
Default : Да
Forced : Нет
Текст
Идентификатор : 4
Формат : UTF-8
Идентификатор кодека : S_TEXT/UTF8
Идентификатор кодека/Информация : UTF-8 Plain Text
Заголовок : English
Язык : English
Default : Нет
Forced : Нет
-

Скриншоты





Показать сообщения:    

Текущее время: 17-Дек 11:56

Часовой пояс: UTC ± 0


Вы не можете начинать темы
Вы не можете отвечать на сообщения
Вы не можете редактировать свои сообщения
Вы не можете удалять свои сообщения
Вы не можете голосовать в опросах
Вы не можете прикреплять файлы к сообщениям
Вы не можете скачивать файлы

!ВНИМАНИЕ!
Сайт не предоставляет электронные версии произведений, а занимается лишь коллекционированием и каталогизацией ссылок, присылаемых и публикуемых на форуме нашими читателями. Если вы являетесь правообладателем какого-либо представленного материала и не желаете, чтобы ссылка на него находилась в нашем каталоге, свяжитесь с нами, и мы незамедлительно удалим ее. Файлы для обмена на трекере предоставлены пользователями сайта, и администрация не несет ответственности за их содержание. Просьба не заливать файлы, защищенные авторскими правами, а также файлы нелегального содержания!