Ивановский Торрент трекер
Яндекс.Погода
 

[Цитировать]
HUNTER

Скуби-Ду! Корпорация "Тайна"
Scooby-Doo! Mystery Incorporated
Сезон 2: 1-26 из 26

-Год производства: 2012
Страна: USA
Жанр: Мультипликация
Продолжительность: ~23 мин
Кол-во эпизодов: 1-26 из 26
Перевод: Профессиональный (Дублированный)
Субтитры: отсутствуют-Режиссер: Курт Геда / Curt Geda-Описание: В этом новом мультипликационном сериале Скуби-Ду и его команда - Шегги, Фред, Дафна и Велма пытаются рагадать тайны города Кристальная Бухта, города со свой историей, полной жутких сверхъестественных событий.-Качество видео: WEB-DL 720p
Формат видео: mkv
Видео кодек: H264
Аудио кодек: AC3
Видео: 1280x720 (16/9), 23.976 fps, 3 961 Kbps (0.179 bit/pixel)
Аудио#1: Russian, 2.0, 192 Кбит/сек, 48 kHz (Дубляж)
Аудио#2: Russian, 2.0, 192 Кбит/сек, 48 kHz (Закадровый)
Аудио#3: English, 2.0, 192 Кбит/сек, 48 kHz (Оригинал)-

Доп. информация

Эпизоды


1. The Night The Clown Cried / (В ночь когда плакал клоун)
2. House of The Nightmare Witch / (Дом ведьмы из ночного кошмара)
3. The Night The Clown Cried II Tears of Doom / (В ночь когда плакал клоун Часть 2)
4. Web of The Dreamweaver / (Сеть паука грез)
5. The Hodag of Horror / (Ужасный Ходак)
6. Art of Darkness / Искусство темноты
7. The Gathering Gloom / Сборище во мраке
8. The Night on Haunted Mountain / Ночь на горе призраков
9. Grim Judgement / Жестокое наказание
10. Night Terrors / Ночной террор
11. The Midnight Zone / Полуночная зона
12. Scarebear / Страшный медведь
13. Wrath of The Krampus / Гнев Крампуса
14. Heart of Evil / Сердце зла
15. Theater of Doom / Театр страха
16. Aliens Among Us / Пришельцы среди нас
17. The Horrible Herd / Жуткое стадо
18. Dance of The Undead / Танцы зомби
19. The Devouring / Поглощение
20. Stand and Deliver / Кошелек или жизнь
21. The Man in The Mirror / Человек в зеркале
22. Nightmare in Red / Кошмар в красном
23. Dark Night of The Hunters / Темная ночь для охоты
24. Gates of Gloom / Ворота в сумрак
25. Through The Curtain / Сквозь шторы
26. Come Undone / Все перевернулось

Скриншоты


MediaInfo

Код: copyText_writeLink('this.parentNode.parentNode.nextSibling.nextSibling');
General
Complete name : D:\Торенты\Шэгги и Скуби-Ду ключ найдут! Часть 2.AVI
Format : AVI
Format/Info : Audio Video Interleave
File size : 714 MiB
Duration : 1h 27mn
Overall bit rate : 1 146 Kbps
Video
ID : 0
Format : MPEG-4 Visual
Format profile : Advanced Simple@L5
Format settings, BVOP : 2
Format settings, QPel : No
Format settings, GMC : No warppoints
Format settings, Matrix : Default (H.263)
Muxing mode : Packed bitstream
Codec ID : XVID
Codec ID/Hint : XviD
Duration : 1h 27mn
Bit rate : 941 Kbps
Width : 720 pixels
Height : 544 pixels
Display aspect ratio : 4:3
Frame rate : 25.000 fps
Color space : YUV
Chroma subsampling : 4:2:0
Bit depth : 8 bits
Scan type : Progressive
Compression mode : Lossy
Bits/(Pixel*Frame) : 0.096
Stream size : 587 MiB (82%)
Title : DVD3VIDEO
Writing library : XviD 64
Audio
ID : 1
Format : MPEG Audio
Format version : Version 1
Format profile : Layer 3
Mode : Joint stereo
Mode extension : MS Stereo
Codec ID : 55
Codec ID/Hint : MP3
Duration : 1h 26mn
Bit rate mode : Constant
Bit rate : 192 Kbps
Channel(s) : 2 channels
Sampling rate : 48.0 KHz
Compression mode : Lossy
Stream size : 119 MiB (17%)
Alignment : Split accross interleaves
Interleave, duration : 24 ms (0.60 video frame)
Title : DVD3AUDIO00

Внимание! Раздача ведётся путём добавления новых серий

Внимание! Раздача ведётся путём добавления новых серий; при каждом добавлении создётся новый торрент. Чтобы начать докачку новой серии, пользователям необходимо сделать следующее:
(1) остановить скачивание,
(2) удалить старый торрент у себя из клиента (старые серии удалять не надо),
(3) скачать новый торрент и запустить его у себя в клиенте вместо старого, при этом указать клиенту путь в старую папку куда и должно происходить скачивание новых серий.
Ваш клиент при этом должен произвести хеширование (проверку) старой папки (если не производит сам - помогите ему сделать это), и будет докачивать только те серии которых у вас ещё нет. Старые серии при этом не удаляются, а продолжают раздаваться!
Eсли вы уже удалили старые серии, то предотвратить повторную закачку старых серий можно, отжав галочку в соответсвующих местах при запуске нового торрента. По возможности, желательно не удалять старые серии как можно дольше, чтобы релизёр не столько продолжал раздавать старые серии, а смог сконцентрироваться на новых.
0 человек читают эту тему: 0 пользователей, 0 скрытых пользователей, 0 гостей

Показать сообщения:    

Текущее время: 22-Авг 21:45

Часовой пояс: UTC - 1


Вы не можете начинать темы
Вы не можете отвечать на сообщения
Вы не можете редактировать свои сообщения
Вы не можете удалять свои сообщения
Вы не можете голосовать в опросах
Вы не можете прикреплять файлы к сообщениям
Вы не можете скачивать файлы

!ВНИМАНИЕ!
Сайт не предоставляет электронные версии произведений, а занимается лишь коллекционированием и каталогизацией ссылок, присылаемых и публикуемых на форуме нашими читателями. Если вы являетесь правообладателем какого-либо представленного материала и не желаете, чтобы ссылка на него находилась в нашем каталоге, свяжитесь с нами, и мы незамедлительно удалим ее. Файлы для обмена на трекере предоставлены пользователями сайта, и администрация не несет ответственности за их содержание. Просьба не заливать файлы, защищенные авторскими правами, а также файлы нелегального содержания!