Важное объявление!
У Нас Все раздачи мультитрекерные, при нуле пиров в релизах, можете смело вставать на закачку!
Статистика раздачи
Размер:     |    Зарегистрирован:     |    Скачан:     |   
Нет
 
     
 
 
Автор Сообщение

HUNTER

Стаж:
5 лет 1 месяц
Сообщений:
68426

Репутация: 101

[+] [-]
Вне форума [Профиль] [ЛС]

Скуби-Ду! Корпорация "Тайна"
Scooby-Doo! Mystery Incorporated
Сезон 1: 26 (26)

-Год производства: 2010-2011
Страна: USA
Жанр: Мультипликация
Продолжительность: ~22 мин
Перевод: Профессиональный (Дублированный)
Субтитры: отсутствуют-Режиссер: Курт Геда / Curt Geda-Роли озвучивали: Мэттью Лиллард, Фрэнк Уэлкер, Кейси Касем, Грей Делайл, Минди Кон, Патрик Уорбертон-Описание: В этом новом мультипликационном сериале Скуби-Ду и его команда - Шегги, Фред, Дафна и Велма пытаются рагадать тайны города Кристальная Бухта, города со свой историей, полной жутких сверхъестественных событий.-Качество видео: HDRip 720p
Формат видео: mkv
Видео кодек: H264
Аудио кодек: AC3
Видео: H264, 3179 kbps, 1280x720, 24 fps, 16:9, L 3.1
Аудио#1: Russian, 2.0, 192 Кбит/сек, 48 kHz (Дубляж)
Аудио#2: Russian, 2.0, 192 Кбит/сек, 48 kHz (Закадровый)
Аудио#3: English, 2.0, 192 Кбит/сек, 48 kHz (Оригинал)-

Доп. информация

Список серий

01 - Бойтесь чудовища из подземелья / (Beware the Beast from Below) (Дубляж / Закадровый)
02 - Ужасные чудовища / (The Creeping Creatures) (Дубляж / Закадровый)
03 - Секрет грузовика-призрака / (The Secret of the Ghost Rig) (Дубляж / Закадровый)
04 - Месть Человека-Краба / (Revenge of The Man Crab) (Дубляж / Закадровый)
05 - Мистическая мелодия / (The Song of Mystery) (Дубляж / Закадровый)
06 - Легенда об Элис Мей / (The Legend of Alice May) (Дубляж / Закадровый)
07 - В страхе от фантома / (In Fear of The Phantom) (Дубляж / Закадровый)
08 - Во власти гнома / (The Grasp Of the Gnome) (Дубляж / Закадровый)
09 - Битва Человеконавтов / (Battle Of The Humangonauts) (Дубляж / Закадровый)
10 - Вой страшного пса / (Howl of The Fright Hound) (Дубляж / Закадровый)
11 - Секретная сыворотка / (The Secret Serum) (Дубляж / Закадровый)
12 - Пронзительное сумасшествие / (Shrieking Madness) (Дубляж / Закадровый)
13 - Когда Цикады зовут / (When The Cicada Calls) (Дубляж / Закадровый)
14 - Финал конкурса детективов / (Mystery Solvers Club State Finals) (Дубляж / Закадровый)
15 - Дикая Стая / (Wild Brood) (Дубляж / Закадровый)
16 - Где гуляет Афродита / (Where Walks Aphrodite) (Дубляж / Закадровый)
17 - Исчезновение таинственного особняка / (Escape From Mystery Manor) (Дубляж / Закадровый)
18 - Секрет Дракона / (The Dragon's Secret) (Дубляж / Оригинал)
19 - Ночной кошмар / (Nightfright) (Дубляж / Оригинал)
20 - Песня сирены / (The Siren's Song) (Дубляж / Оригинал)
21 - Опасная Мантикора / (Menace of the Manticore) (Дубляж / Оригинал)
22 - Нападение безголового монстра / (Attack of the Headless Horror) (Дубляж / Оригинал)
23 - Охота на призраков в Кристальной пещере / (A Haunting in Crystal Cove) (Дубляж / Оригинал)
24 - Cудья с того света / (Dead Justice) (Дубляж / Оригинал)
25 - Заложник теней / (Pawn of Shadows) (Дубляж / Оригинал)
26 - Все боятся Фрика / ( All Fear The Freak) (Дубляж / Оригинал)

Скриншоты


MediaInfo

Код: copyText_writeLink('this.parentNode.parentNode.nextSibling.nextSibling');
General
Unique ID : 176905696452322517005097387363107731638 (0x8516CC3D79601D4A82B8B40D6FB9F8B6)
Complete name : D:\Торенты\Scooby-Doo! Mystery Incorporated\S01E15 The Wild Brood 720p.mkv
Format : Matroska
Format version : Version 2
File size : 717 MiB
Duration : 22mn 2s
Overall bit rate : 4 549 Kbps
Encoded date : UTC 2011-10-01 08:11:31
Writing application : mkvmerge v2.9.7 ('Tenderness') built on Jul 1 2009 18:43:35
Writing library : libebml v0.7.7 + libmatroska v0.8.1
Video
ID : 1
Format : AVC
Format/Info : Advanced Video Codec
Format profile : [url=mailto:High@L3.1]High@L3.1[/url]
Format settings, CABAC : No
Format settings, ReFrames : 2 frames
Codec ID : V_MPEG4/ISO/AVC
Duration : 22mn 2s
Bit rate : 3 883 Kbps
Width : 1 280 pixels
Height : 720 pixels
Display aspect ratio : 16:9
Frame rate mode : Constant
Frame rate : 23.976 fps
Color space : YUV
Chroma subsampling : 4:2:0
Bit depth : 8 bits
Scan type : Progressive
Bits/(Pixel*Frame) : 0.176
Stream size : 612 MiB (85%)
Language : English
Default : Yes
Forced : No
Color primaries : BT.709
Transfer characteristics : BT.709
Matrix coefficients : BT.709
Audio #1
ID : 2
Format : AC-3
Format/Info : Audio Coding 3
Mode extension : CM (complete main)
Format settings, Endianness : Big
Codec ID : A_AC3
Duration : 22mn 2s
Bit rate mode : Constant
Bit rate : 192 Kbps
Channel(s) : 2 channels
Channel positions : Front: L R
Sampling rate : 48.0 KHz
Bit depth : 16 bits
Compression mode : Lossy
Stream size : 30.3 MiB (4%)
Title : Дубляж
Language : Russian
Default : Yes
Forced : No
Audio #2
ID : 3
Format : AC-3
Format/Info : Audio Coding 3
Mode extension : CM (complete main)
Format settings, Endianness : Big
Codec ID : A_AC3
Duration : 22mn 2s
Bit rate mode : Constant
Bit rate : 192 Kbps
Channel(s) : 2 channels
Channel positions : Front: L R
Sampling rate : 48.0 KHz
Bit depth : 16 bits
Compression mode : Lossy
Stream size : 30.3 MiB (4%)
Title : Закадровый
Language : Russian
Default : No
Forced : No
Audio #3
ID : 4
Format : AC-3
Format/Info : Audio Coding 3
Mode extension : CM (complete main)
Format settings, Endianness : Big
Codec ID : A_AC3
Duration : 22mn 2s
Bit rate mode : Constant
Bit rate : 192 Kbps
Channel(s) : 2 channels
Channel positions : Front: L R
Sampling rate : 48.0 KHz
Bit depth : 16 bits
Compression mode : Lossy
Stream size : 30.3 MiB (4%)
Language : English
Default : No
Forced : No

Внимание! Раздача ведётся путём добавления новых серий

Внимание! Раздача ведётся путём добавления новых серий; при каждом добавлении создётся новый торрент. Чтобы начать докачку новой серии, пользователям необходимо сделать следующее:
(1) остановить скачивание,
(2) удалить старый торрент у себя из клиента (старые серии удалять не надо),
(3) скачать новый торрент и запустить его у себя в клиенте вместо старого, при этом указать клиенту путь в старую папку куда и должно происходить скачивание новых серий.
Ваш клиент при этом должен произвести хеширование (проверку) старой папки (если не производит сам - помогите ему сделать это), и будет докачивать только те серии которых у вас ещё нет. Старые серии при этом не удаляются, а продолжают раздаваться!
Eсли вы уже удалили старые серии, то предотвратить повторную закачку старых серий можно, отжав галочку в соответсвующих местах при запуске нового торрента. По возможности, желательно не удалять старые серии как можно дольше, чтобы релизёр не столько продолжал раздавать старые серии, а смог сконцентрироваться на новых.

_________________
Показать сообщения:    

Текущее время: Сегодня 18:30

Часовой пояс: GMT



Вы не можете начинать темы
Вы не можете отвечать на сообщения
Вы не можете редактировать свои сообщения
Вы не можете удалять свои сообщения
Вы не можете голосовать в опросах
Вы не можете прикреплять файлы к сообщениям
Вы не можете скачивать файлы