Важное объявление!
У Нас Все раздачи мультитрекерные, при нуле пиров в релизах, можете смело вставать на закачку!
 
Автор Сообщение

HUNTER

Стаж:
4 года 6 месяцев
Сообщений:
60899

Репутация: 101

[+] [-]
Вне форума [Профиль] [ЛС]

Скуби-Ду и KISS: Тайна рок-н-ролла
Scooby-Doo! And Kiss: Rock and Roll Mystery
-
Страна: США
Жанр: мультфильм, семейный
Продолжительность: 01:18:43
Год выпуска: 2015
Перевод: Профессиональный (двухголосый закадровый)
Русские субтитры: нет
Режиссёр: Спайк Брандт / Spike Brandt, Тони Червоне / Tony Cervone
Роли озвучивали: Тони Червоне, Минди Кон, Грэй Гриффин, Мэттью Лиллард, Док МакГи, Джейсон Мьюз, Дариус Ракер, Джин Симмонс, Эрик Сингер, Пол Стэнли-ОписаниеПриключения дога по имени Скуби-Ду и его друзей детективов продолжаются. Им предстоит раскрыть новую тайну. Главные герои побывают в мире рока, так как на этот раз одними из персонажей мультфильма станут участники легендарной группы Kiss. Конечно, в новом эпизоде не обойдется без загадок, мистики и забавных ситуаций.-Rus DVO DTS-HD MA предоставил xfiles, Большое Спасибо-Релиз:

Сэмпл

IMDb 6,5/10 from 180 users
Качество: BDRip-AVC SCOOBY_DOO_AND_KISS
Формат: MKV
Видео: AVC 2175 Kbps 1024 x 576 (1.778) 23.976 fps
Аудио: AC-3 448 Kbps 6 channels, 48.0 KHz Rus DVO
Аудио 2: AC-3 448 Kbps 6 channels, 48.0 KHz Eng
Субтитры: Eng, Fre SRT

MI | Log

Log
x264 [info]: frame I:1097 Avg QP:13.79 size: 98471
x264 [info]: frame P:32057 Avg QP:16.67 size: 22646
x264 [info]: frame B:80097 Avg QP:17.55 size: 6066
x264 [info]: consecutive B-frames: 6.2% 6.3% 13.8% 38.8% 14.7% 8.2% 2.2% 2.0% 1.7% 1.9% 0.9% 1.5% 1.7%
x264 [info]: mb I I16..4: 13.2% 45.4% 41.4%
x264 [info]: mb P I16..4: 2.3% 10.1% 4.6% P16..4: 20.6% 16.9% 9.4% 3.0% 0.7% skip:32.3%
x264 [info]: mb B I16..4: 0.6% 1.4% 0.5% B16..8: 19.2% 10.3% 2.8% direct: 2.8% skip:62.5% L0:46.0% L1:45.4% BI: 8.6%
x264 [info]: 8x8 transform intra:56.6% inter:43.1%
x264 [info]: direct mvs spatial:100.0% temporal:0.0%
x264 [info]: coded y,uvDC,uvAC intra: 66.5% 81.8% 70.1% inter: 11.1% 13.3% 7.0%
x264 [info]: i16 v,h,dc,p: 50% 15% 7% 27%
x264 [info]: i8 v,h,dc,ddl,ddr,vr,hd,vl,hu: 11% 12% 14% 9% 10% 9% 11% 10% 14%
x264 [info]: i4 v,h,dc,ddl,ddr,vr,hd,vl,hu: 15% 13% 14% 8% 11% 9% 10% 8% 11%
x264 [info]: i8c dc,h,v,p: 36% 28% 17% 19%
x264 [info]: Weighted P-Frames: Y:2.8% UV:2.5%
x264 [info]: ref P L0: 53.0% 5.8% 13.8% 6.6% 4.4% 3.9% 3.1% 2.8% 2.6% 1.8% 1.6% 0.6% 0.0%
x264 [info]: ref B L0: 67.5% 12.0% 6.8% 3.8% 2.9% 2.3% 1.9% 1.4% 0.9% 0.5%
x264 [info]: ref B L1: 91.5% 8.5%
x264 [info]: kb/s:2235.33
x264 [total]: encoded 113251 frames, 11.23 fps, 2235.33 kb/s, duration 2:48:02.70
Format : Matroska
Format version : Version 4 / Version 2
File size : 1.72 GiB
Duration : 1h 18mn
Overall bit rate : 3 134 Kbps
Encoded date : UTC 2015-08-11 10:13:49
Writing application : mkvmerge v6.7.0 ('Back to the Ground') 32bit built on Jan 8 2014 15:03:17
Writing library : libebml v1.3.0 + libmatroska v1.4.1
Video
ID : 1
Format : AVC
Format/Info : Advanced Video Codec
Format profile : High@L4.1
Format settings, CABAC : Yes
Format settings, ReFrames : 11 frames
Codec ID : V_MPEG4/ISO/AVC
Duration : 1h 18mn
Bit rate : 2 175 Kbps
Width : 1 024 pixels
Height : 576 pixels
Display aspect ratio : 16:9
Frame rate mode : Constant
Frame rate : 23.976 fps
Color space : YUV
Chroma subsampling : 4:2:0
Bit depth : 8 bits
Scan type : Progressive
Bits/(Pixel*Frame) : 0.154
Stream size : 1.20 GiB (69%)
Title : Scooby-Doo! And Kiss: Rock and Roll Mystery (2015) [rutracker.org]
Writing library : x264 core 148 r2579kMod 73ae2d1
Encoding settings : cabac=1 / ref=11 / deblock=1:-2:-1 / analyse=0x3:0x133 / me=umh / subme=11 / psy=1 / fade_compensate=0.00 / psy_rd=1.00:0.05 / mixed_ref=1 / me_range=32 / chroma_me=1 / trellis=2 / 8x8dct=1 / cqm=0 / deadzone=21,11 / fast_pskip=0 / chroma_qp_offset=-3 / threads=12 / lookahead_threads=3 / sliced_threads=0 / nr=0 / decimate=1 / interlaced=0 / bluray_compat=0 / constrained_intra=0 / fgo=0 / bframes=12 / b_pyramid=2 / b_adapt=2 / b_bias=0 / direct=3 / weightb=1 / open_gop=0 / weightp=2 / keyint=250 / keyint_min=23 / scenecut=40 / intra_refresh=0 / rc_lookahead=80 / rc=crf / mbtree=0 / crf=17.6000 / qcomp=0.60 / qpmin=0 / qpmax=69 / qpstep=4 / vbv_maxrate=50000 / vbv_bufsize=62500 / crf_max=0.0 / nal_hrd=none / filler=0 / ip_ratio=1.40 / pb_ratio=1.30 / aq=3:0.90
Language : English
Default : Yes
Forced : No
Audio #1
ID : 2
Format : AC-3
Format/Info : Audio Coding 3
Mode extension : CM (complete main)
Format settings, Endianness : Big
Codec ID : A_AC3
Duration : 1h 18mn
Bit rate mode : Constant
Bit rate : 448 Kbps
Channel(s) : 6 channels
Channel positions : Front: L C R, Side: L R, LFE
Sampling rate : 48.0 KHz
Compression mode : Lossy
Stream size : 252 MiB (14%)
Title : DVO
Language : Russian
Default : Yes
Forced : No
Audio #2
ID : 3
Format : AC-3
Format/Info : Audio Coding 3
Mode extension : CM (complete main)
Format settings, Endianness : Big
Codec ID : A_AC3
Duration : 1h 18mn
Bit rate mode : Constant
Bit rate : 448 Kbps
Channel(s) : 6 channels
Channel positions : Front: L C R, Side: L R, LFE
Sampling rate : 48.0 KHz
Compression mode : Lossy
Stream size : 252 MiB (14%)
Title : Original
Language : English
Default : No
Forced : No
Text #1
ID : 4
Format : UTF-8
Codec ID : S_TEXT/UTF8
Codec ID/Info : UTF-8 Plain Text
Title : Full
Language : English
Default : No
Forced : No
Text #2
ID : 5
Format : UTF-8
Codec ID : S_TEXT/UTF8
Codec ID/Info : UTF-8 Plain Text
Title : Full
Language : French
Default : No
Forced : No
Menu
00:00:00.000 : en:00:00:00.000
00:12:47.600 : en:00:12:47.600
00:20:51.083 : en:00:20:51.083
00:29:46.785 : en:00:29:46.785
00:39:22.360 : en:00:39:22.360
00:51:22.663 : en:00:51:22.663
01:03:42.861 : en:01:03:42.861
01:12:14.080 : en:01:12:14.080
01:15:16.512 : en:01:15:16.512[/pre]

Скриншоты




_________________
Показать сообщения:    

Текущее время: Сегодня 07:39

Часовой пояс: GMT



Вы не можете начинать темы
Вы не можете отвечать на сообщения
Вы не можете редактировать свои сообщения
Вы не можете удалять свои сообщения
Вы не можете голосовать в опросах
Вы не можете прикреплять файлы к сообщениям
Вы не можете скачивать файлы
Наши партнеры: интернет магазин Ивановского трикотажа textilla.ru