Важное объявление!
У Нас Все раздачи мультитрекерные, при нуле пиров в релизах, можете смело вставать на закачку!
Статистика раздачи
Размер:     |    Зарегистрирован:     |    Скачан:     |   
Нет
 
     
 
 
Автор Сообщение

HUNTER

Стаж:
5 лет
Сообщений:
68401

Репутация: 101

[+] [-]
Вне форума [Профиль] [ЛС]

Скуби-Ду и KISS: Тайна рок-н-ролла / Scooby-Doo! And Kiss: Rock and Roll Mystery
Страна: США
Жанр: Мультипликация
Продолжительность: 01:18:42
Год выпуска: 2015
Перевод: Профессиональный (многоголосый закадровый) [Line]
Русские субтитры: нет-Режиссёр: Спайк Брандт/Spike Brandt, Тони Червоне/Tony Cervone
Роли озвучивали: Тони Червоне, Минди Кон, Грэй Гриффин, Мэттью Лиллард, Док МакГи, Джейсон Мьюз, Дариус Ракер, Джин Симмонс, Эрик Сингер, Пол Стэнли-Описание: Новые приключения пса по имени Скуби-Ду и его друзей продолжаются. Им предстоит раскрыть новую тайну. Зрителям предоставится возможность увидеть целиком группу в мультфильме, музыканты озвучивали сами себя. Сюжет мультфильма будет сфокусирован на хэллоуинском концерт в парке Kiss World. С помощью участников группы они обнаружат Кровавую Ведьму, которая вызовет Разрушителя из параллельного мира Kissteria с целью уничтожить планету. Будет ли спасён наш мир – зависит только от музыкантов Kiss и команды Скуби-Ду!-Качество: WEB-DL 1080p
Формат: MKV
Видео: AVC, 1912x1072 (16:9), 23.976 fps, 4 940 Kbps (0.101 bit/pixel)
Аудио: AC-3, 48.0 KHz, 2 ch, 320 Kbps, CBR (Russian) [Line]
Аудио 2: AC-3, 48.0 KHz, 6 ch, 384 Kbps, CBR (English)
Субтитры: English
Семпл: Забираем тут

Подробные технические данные

GeneralUnique ID : 183253237059564374119896760226008382654 (0x89DD4A278B37A6AAA999B4021929BCBE)Complete name : Scooby-Doo! & KISS Rock & Roll Mystery 2015 WEBDL 1080p.mkvFormat : MatroskaFormat version : Version 4 / Version 2File size : 3.17 GiBDuration : 1h 18mnOverall bit rate : 5 758 KbpsEncoded date : UTC 2015-08-04 19:58:18Writing application : mkvmerge v7.7.0 ('Six Voices') 64bit built on Feb 28 2015 23:39:33Writing library : libebml v1.3.1 + libmatroska v1.4.2DURATION : 01:18:42.400000000NUMBER_OF_FRAMES : 147575NUMBER_OF_BYTES : 188896000_STATISTICS_WRITING_APP : mkvmerge v7.7.0 ('Six Voices') 64bit built on Feb 28 2015 23:39:33_STATISTICS_WRITING_DATE_UTC : 2015-08-04 19:58:18_STATISTICS_TAGS : BPS DURATION NUMBER_OF_FRAMES NUMBER_OF_BYTES
VideoID : 1Format : AVCFormat/Info : Advanced Video CodecFormat profile : High@L4.0Format settings, CABAC : YesFormat settings, ReFrames : 4 framesCodec ID : V_MPEG4/ISO/AVCDuration : 1h 18mnBit rate : 4 940 KbpsWidth : 1 912 pixelsHeight : 1 072 pixelsDisplay aspect ratio : 16:9Frame rate mode : ConstantFrame rate : 23.976 fpsColor space : YUVChroma subsampling : 4:2:0Bit depth : 8 bitsScan type : ProgressiveBits/(Pixel*Frame) : 0.101Stream size : 2.72 GiB (86%)Language : EnglishDefault : YesForced : NoColor primaries : BT.709Transfer characteristics : BT.709Matrix coefficients : BT.709
Audio #1ID : 2Format : AC-3Format/Info : Audio Coding 3Mode extension : CM (complete main)Format settings, Endianness : BigCodec ID : A_AC3Duration : 1h 18mnBit rate mode : ConstantBit rate : 320 KbpsChannel(s) : 2 channelsChannel positions : Front: L RSampling rate : 48.0 KHzBit depth : 16 bitsCompression mode : LossyStream size : 180 MiB (6%)Language : RussianDefault : YesForced : No
Audio #2ID : 3Format : AC-3Format/Info : Audio Coding 3Mode extension : CM (complete main)Format settings, Endianness : BigCodec ID : A_AC3Duration : 1h 18mnBit rate mode : ConstantBit rate : 384 KbpsChannel(s) : 6 channelsChannel positions : Front: L C R, Side: L R, LFESampling rate : 48.0 KHzBit depth : 16 bitsCompression mode : LossyStream size : 216 MiB (7%)Language : EnglishDefault : NoForced : No
TextID : 4Format : UTF-8Codec ID : S_TEXT/UTF8Codec ID/Info : UTF-8 Plain TextLanguage : EnglishDefault : NoForced : No
Menu00:00:00.000 : en:100:12:47.000 : en:200:20:51.000 : en:300:29:46.000 : en:400:39:22.000 : en:500:51:22.000 : en:601:03:42.000 : en:701:12:14.000 : en:801:15:15.000 : en:9

Скриншоты



_________________
Показать сообщения:    

Текущее время: Сегодня 03:58

Часовой пояс: GMT



Вы не можете начинать темы
Вы не можете отвечать на сообщения
Вы не можете редактировать свои сообщения
Вы не можете удалять свои сообщения
Вы не можете голосовать в опросах
Вы не можете прикреплять файлы к сообщениям
Вы не можете скачивать файлы