Скуби-Ду и призрак ведьмы / Scooby-Doo and the Witch\'s Ghost (Джим Стенструм / Jim Stenstrum) [1999 г., Мультфильм, DVDRip] 2 х Dub + Original :: Ивановский Торрент трекер
Важное объявление!
У Нас Все раздачи мультитрекерные, при нуле пиров в релизах, можете смело вставать на закачку!
Статистика раздачи
Размер:     |    Зарегистрирован:     |    Скачан:     |   
Нет
 
     
 
 
Автор Сообщение

HUNTER

Стаж:
4 года 11 месяцев
Сообщений:
66098

Репутация: 101

[+] [-]
Вне форума [Профиль] [ЛС]

Скуби-Ду и призрак ведьмы / Scooby-Doo and the Witch's Ghost
Год выпуска: 1999
Страна: США
Жанр: Мультфильм
Продолжительность: 01:06:37
Перевод 1: Профессиональный (дублированный) - Объединение Русский Дубляж
Перевод 2: Профессиональный (дублированный) - Мост Видео
Язык оригинала: Английский
Русские субтитры: нет-Режиссер: Джим Стенструм / Jim Stenstrum
Роли озвучивали: Фрэнк Уэлкер, Мэри Кей Бергман, Б. Дж. Уорд, Скотт Иннес, Тим Карри, Тресс МакНилл, Дженнифер Хейл, Джейн Уидлин, Кимберли Брукс-Описание: Когда компания друзей знакомится со знаменитым автором романов ужасов Беном Рэйвенкрофтом, он приглашает их в свой родной город на осенний Праздник урожая. Все оборачивается загадочным приключением: в городке обитает привидение одного из предков Бена — знаменитой Сары.
- -Качество: DVDRip
Формат: AVI
Видео: 640x480 (1.33:1), 23.976 fps, XviD ~1593 kbps avg, 0.22 bit/pixel
Аудио 1: AC-3, 48.0 KHz, 2 ch, 192 Kbps, CBR Russian
Аудио 2: AC-3, 48.0 KHz, 2 ch, 192 Kbps, CBR Russian
Аудио 3: AC-3, 48.0 KHz, 6 ch, 384 Kbps, CBR Original
СкриншотыОтчет MediaInfo
GeneralComplete name : Scooby-Doo and the Witch's Ghost_Olu6ka.aviFormat : AVIFormat/Info : Audio Video InterleaveFile size : 1.10 GiBDuration : 1h 6mnOverall bit rate : 2 374 KbpsWriting application : VirtualDubModRus 1.5.10.2 (build 2542/release)Writing library : VirtualDubMod build 2542/release
VideoID : 0Format : MPEG-4 VisualFormat profile : Advanced Simple@L5Format settings, BVOP : 1Format settings, QPel : NoFormat settings, GMC : No warppointsFormat settings, Matrix : CustomCodec ID : XVIDCodec ID/Hint : XviDDuration : 1h 6mnBit rate : 1 587 KbpsWidth : 640 pixelsHeight : 480 pixelsDisplay aspect ratio : 4:3Frame rate : 23.976 fpsColor space : YUVChroma subsampling : 4:2:0Bit depth : 8 bitsScan type : ProgressiveCompression mode : LossyBits/(Pixel*Frame) : 0.215Stream size : 756 MiB (67%)Writing library : XviD 65
Audio #1ID : 1Format : AC-3Format/Info : Audio Coding 3Mode extension : CM (complete main)Format settings, Endianness : BigCodec ID : 2000Duration : 1h 6mnBit rate mode : ConstantBit rate : 192 KbpsChannel count : 2 channelsChannel positions : Front: L RSampling rate : 48.0 KHzBit depth : 16 bitsCompression mode : LossyStream size : 91.5 MiB (8%)Alignment : Split accross interleavesInterleave, duration : 42 ms (1.00 video frame)Interleave, preload duration : 500 ms
Audio #2ID : 2Format : AC-3Format/Info : Audio Coding 3Mode extension : CM (complete main)Format settings, Endianness : BigCodec ID : 2000Duration : 1h 6mnBit rate mode : ConstantBit rate : 192 KbpsChannel count : 2 channelsChannel positions : Front: L RSampling rate : 48.0 KHzBit depth : 16 bitsCompression mode : LossyStream size : 91.5 MiB (8%)Alignment : Split accross interleavesInterleave, duration : 42 ms (1.00 video frame)Interleave, preload duration : 500 ms
Audio #3ID : 3Format : AC-3Format/Info : Audio Coding 3Mode extension : CM (complete main)Format settings, Endianness : BigCodec ID : 2000Duration : 1h 6mnBit rate mode : ConstantBit rate : 384 KbpsChannel count : 6 channelsChannel positions : Front: L C R, Side: L R, LFESampling rate : 48.0 KHzBit depth : 16 bitsCompression mode : LossyStream size : 183 MiB (16%)Alignment : Split accross interleavesInterleave, duration : 42 ms (1.00 video frame)Interleave, preload duration : 500 ms
Сравнение
http://rutracker.org/forum/viewtopic.php?t=2983086 - неудачно подобран деинтерлейс
По три кадра подряд

скрытый текстСпасибо Shellters-bob за исходник, Parafonix и yaroslav230596 за любезно предоставленные звуковые дорожки!Релиз от группы

_________________
Показать сообщения:    

Текущее время: Сегодня 05:39

Часовой пояс: GMT



Вы не можете начинать темы
Вы не можете отвечать на сообщения
Вы не можете редактировать свои сообщения
Вы не можете удалять свои сообщения
Вы не можете голосовать в опросах
Вы не можете прикреплять файлы к сообщениям
Вы не можете скачивать файлы