Ивановский Торрент трекер
Яндекс.Погода
 

[Цитировать]
HUNTER

Скуби-Ду и меч самурая / Scooby-Doo and the Samurai Sword-
Год выпуска: 2009
Страна: США
Жанр: мультфильм, боевик, комедия, детектив, приключения
Продолжительность: 01:14:50
Перевод #1: Профессиональный (полное дублирование) Пифагор
Перевод #2: Профессиональный (многоголосый, закадровый) R1
Оригинальная звуковая дорожка: English
Cубтитры: Russian, Ukrainian, English-Режиссер: Кристофер Беркли / Christopher Berkeley
В ролях: Фрэнк Уэлкер, Кэйси Касэм, Минди Кон, Грэй ДеЛисл, Келли Ху, Кевин Майкл Ричардсон, Саб Симоно, Джордж Такей, Гедде Ватанабе, Кион Янг
О фильме: У любителей побездельничать Скуби-Ду и Шэгги - новое задание. Они должны раскрыть тайну, связанную с боевыми искусствами! В поисках сокровища Скуби-Ду и Ко. отправляются на другой континент, где им приходится разгадывать древние загадки. Наши детективы должны опередить Черного самурая и его Воинов-призраков в погоне за Мечом Судьбы, старинным оружием, которое, согласно легенде, обладает волшебной силой. По пути необычный Мастер Меча рассказывает Скуби-Ду и Шэгги о самурайском кодексе "Бусидо". Они тут же применяют новые знания на практике в битве с армией Роботов-ниндзя.
Наконец утомленные герои узнают, что "Бусидо", который превозносит честь, верность и отвагу, хранит в себе разгадку тайны.-Релиз: by vlaluk
Формат: MKV
Видео: 1280x720 at 23.976 fps, crf , ~5959 kbps avg
Аудио #1: Russian: 48 kHz, AC3, 2/0 (L,R) ch, ~192.00 kbps avg |Дубляж, Студия "Пифагор"|
Аудио #2: Russian:48 kHz, DTS, 3/2 (L,C,R,l,r) + LFE ch, ~1509.00 kbps avg |Многоголосый закадровый, R1|
Аудио #3: English:48 kHz, DTS, 3/2 (L,C,R,l,r) + LFE ch, ~1509.00 kbps avg
Семпл-

Source vs Filtered vs Encode




-

mInfo


Формат : Matroska
Версия формата : Version 4 / Version 2
Размер файла : 4,87 Гбайт
Продолжительность : 1 ч. 14 м.
Общий поток : 9322 Кбит/сек
Название фильма : Scooby-Doo! And the Samurai Sword (2009) - Release for HDClub by vlaluk
Дата кодирования : UTC 2014-01-10 04:28:50
Программа кодирования : mkvmerge v6.6.0 ('The Edge Of The In Between') built on Dec 1 2013 17:55:00
Библиотека кодирования : libebml v1.3.0 + libmatroska v1.4.1
Видео
Идентификатор : 1
Формат : AVC
Формат/Информация : Advanced Video Codec
Профиль формата : High@L4.1
Параметр CABAC формата : Да
Параметр ReFrames формата : 9 кадров
Идентификатор кодека : V_MPEG4/ISO/AVC
Продолжительность : 1 ч. 14 м.
Битрейт : 5926 Кбит/сек
Ширина : 1280 пикселей
Высота : 720 пикселей
Соотношение сторон : 16:9
Режим частоты кадров : Постоянный
Частота кадров : 23,976 кадра/сек
Цветовое пространство : YUV
Субдискретизация насыщенности : 4:2:0
Битовая глубина : 8 бит
Тип развёртки : Прогрессивная
Бит/(Пиксели*Кадры) : 0.268
Размер потока : 3,10 Гбайт (64%)
Заголовок : Scooby-Doo! And the Samurai Sword (2009) - Release for HDClub by vlaluk
Библиотека кодирования : x264 core 140 r2377kMod 1ca7bb9
Настройки программы : cabac=1 / ref=9 / deblock=1:1:1 / analyse=0x3:0x133 / me=umh / subme=10 / psy=1 / fade_compensate=0.00 / psy_rd=0.60:0.00 / mixed_ref=1 / me_range=32 / chroma_me=1 / trellis=2 / 8x8dct=1 / cqm=0 / deadzone=21,11 / fast_pskip=0 / chroma_qp_offset=-2 / threads=3 / lookahead_threads=1 / sliced_threads=0 / nr=0 / decimate=0 / interlaced=0 / bluray_compat=0 / constrained_intra=0 / fgo=0 / bframes=8 / b_pyramid=2 / b_adapt=2 / b_bias=0 / direct=3 / weightb=1 / open_gop=0 / weightp=2 / keyint=250 / keyint_min=23 / scenecut=40 / intra_refresh=0 / rc_lookahead=40 / rc=crf / mbtree=0 / crf=12.6000 / qcomp=0.60 / qpmin=0 / qpmax=69 / qpstep=4 / vbv_maxrate=62500 / vbv_bufsize=78125 / crf_max=0.0 / nal_hrd=none / filler=0 / ip_ratio=1.40 / pb_ratio=1.30 / aq=1:0.60 / zones=7088,7230,crf=10/25362,25989,crf=10/27470,29870,crf=10/32288,33170,crf=10/34448,34812,crf=10/89318,100396,crf=10
Язык : English
Default : Да
Forced : Нет
Аудио #1
Идентификатор : 2
Формат : AC-3
Формат/Информация : Audio Coding 3
Профиль формата : Dolby Digital
Расширение режима : CM (complete main)
Параметр Endianness формата : Big
Идентификатор кодека : A_AC3
Продолжительность : 1 ч. 14 м.
Вид битрейта : Постоянный
Битрейт : 192 Кбит/сек
Каналы : 2 канала
Расположение каналов : Front: L R
Частота : 48,0 КГц
Битовая глубина : 16 бит
Метод сжатия : С потерями
Размер потока : 103 Мбайт (2%)
Заголовок : DD 2.0 @ 192 kbps – Дубляж "Пифагор"
Язык : Russian
Default : Да
Forced : Нет
Аудио #2
Идентификатор : 3
Формат : DTS
Формат/Информация : Digital Theater Systems
Режим : 16
Параметр Endianness формата : Big
Идентификатор кодека : A_DTS
Продолжительность : 1 ч. 14 м.
Вид битрейта : Постоянный
Битрейт : 1509 Кбит/сек
Каналы : 6 каналов
Расположение каналов : Front: L C R, Side: L R, LFE
Частота : 48,0 КГц
Битовая глубина : 24 бит
Метод сжатия : С потерями
Размер потока : 808 Мбайт (16%)
Заголовок : DTS 5.1 @ 1509 kbps - Многоголосый закадровый
Язык : Russian
Default : Нет
Forced : Нет
Аудио #3
Идентификатор : 4
Формат : DTS
Формат/Информация : Digital Theater Systems
Режим : 16
Параметр Endianness формата : Big
Идентификатор кодека : A_DTS
Продолжительность : 1 ч. 14 м.
Вид битрейта : Постоянный
Битрейт : 1509 Кбит/сек
Каналы : 6 каналов
Расположение каналов : Front: L C R, Side: L R, LFE
Частота : 48,0 КГц
Битовая глубина : 24 бит
Метод сжатия : С потерями
Размер потока : 808 Мбайт (16%)
Заголовок : DTS 5.1 @ 1509 kbps
Язык : English
Default : Нет
Forced : Нет
Текст #1
Идентификатор : 5
Формат : UTF-8
Идентификатор кодека : S_TEXT/UTF8
Идентификатор кодека/Информация : UTF-8 Plain Text
Заголовок : Russian @ SRT
Язык : Russian
Default : Нет
Forced : Нет
Текст #2
Идентификатор : 6
Формат : UTF-8
Идентификатор кодека : S_TEXT/UTF8
Идентификатор кодека/Информация : UTF-8 Plain Text
Заголовок : Ukrainian @ SRT
Язык : Ukrainian
Default : Нет
Forced : Нет
Текст #3
Идентификатор : 7
Формат : UTF-8
Идентификатор кодека : S_TEXT/UTF8
Идентификатор кодека/Информация : UTF-8 Plain Text
Заголовок : English @ SRT
Язык : English
Default : Нет
Forced : Нет
Меню
00:00:00.000 : en:00:00:00.000
00:10:04.312 : en:00:10:04.312
00:20:45.911 : en:00:20:45.911
00:31:14.581 : en:00:31:14.581
00:39:59.439 : en:00:39:59.439
00:51:12.278 : en:00:51:12.278
00:59:24.019 : en:00:59:24.019
01:09:47.558 : en:01:09:47.558
01:11:44.300 : en:01:11:44.300

-
Цитата:

*** Сохранены оригинальные чаптеры как на Blu-ray.
*** Дорожка №2 получена наложением выделенных голосов на центр декодированного DTS-HD MA.
*** За исходники аудиодорог спасибо Ibraghim.
*** Notes:
* Filter that banding on dark blue sky & other scenes with f3kdb
* Used zones in banding scenes
0 человек читают эту тему: 0 пользователей, 0 скрытых пользователей, 0 гостей

Показать сообщения:    

Текущее время: 23-Авг 22:22

Часовой пояс: UTC - 1


Вы не можете начинать темы
Вы не можете отвечать на сообщения
Вы не можете редактировать свои сообщения
Вы не можете удалять свои сообщения
Вы не можете голосовать в опросах
Вы не можете прикреплять файлы к сообщениям
Вы не можете скачивать файлы

!ВНИМАНИЕ!
Сайт не предоставляет электронные версии произведений, а занимается лишь коллекционированием и каталогизацией ссылок, присылаемых и публикуемых на форуме нашими читателями. Если вы являетесь правообладателем какого-либо представленного материала и не желаете, чтобы ссылка на него находилась в нашем каталоге, свяжитесь с нами, и мы незамедлительно удалим ее. Файлы для обмена на трекере предоставлены пользователями сайта, и администрация не несет ответственности за их содержание. Просьба не заливать файлы, защищенные авторскими правами, а также файлы нелегального содержания!