Ивановский Торрент трекер
Яндекс.Погода
 

[Цитировать]
HUNTER


Скуби-Ду! И легенда о вампире
Scooby-Doo! And the Legend of the Vampire
-

  • Год производства: 2003

  • Страна: USA

  • Жанр: Мультипликация

  • Продолжительность: 01:12:12

  • Перевод: Профессиональный (полное дублирование)

  • Субтитры: Отсутствуют-
  • Режиссер: Скотт Джералдс / Scott Jeralds
    -
  • Описание: Музыка, тайны и легендарный австралийский вампир ждут Скуби-Ду в очередном умопомрачительном путешествии из знаменитой мультипликационной серии. На каникулах в Австралии Скуби-Ду и его бессменная команда отправляется на музыкальный фестиваль «Вампирский Рок».
    Но концерт оказывается в опасности после того, как компания узнает, что легендарное австралийское чудище по кличке Йови Йаху похищает исполнителей и превращает их... в вампиров! Итак, дружной команде Скуби-Ду и его друзей предстоит переодеться в музыкантов «хэви-метал» группы, чтобы спасти фестиваль и разгадать страшную тайну вампирской легенды!
    -
  • Качество видео: BDRip 1080p

  • Формат видео: mkv

  • Видео кодек: H264

  • Аудио кодек: AC3

  • Видео: 1920x1080 (16:9), 23.976 fps, 10.4 Mbps, 0.250 bit/pixel

  • Аудио#1: 48 kHz, AC3 2 ch ~192 kbps avg - DUB «Пифагор»

  • Аудио#2: 48 kHz, AC3 2 ch ~192 kbps avg - DUB Объединение «Русский дубляж» по заказу СТС

  • Аудио#3: 48 kHz, AC3 2 ch ~192 kbps avg - MVO

  • Аудио#4: 48 kHz, AC3 6 ch ~1510 kbps avg - English-
  • Автор рипа: falco
-

Доп. информация

Скриншоты

MediaInfo

Код: copyText_writeLink('this.parentNode.parentNode.nextSibling.nextSibling');
General
Unique ID : 191824152997028993079680655721273747023 (0x904FFCEF9FB42459AFED6A220757E64F)
Complete name : D:\Scooby.Doo.and.the.Legend.of.the.Vampire.2003.BDRip.1080p.falco.mkv
Format : Matroska
Format version : Version 4 / Version 2
File size : 7.50 GiB
Duration : 1h 12mn
Overall bit rate mode : Variable
Overall bit rate : 14.9 Mbps
Encoded date : UTC 2013-09-06 15:27:57
Writing application : mkvmerge v6.3.0 ('You can't stop me!') built on Jun 28 2013 20:09:41
Writing library : libebml v1.3.0 + libmatroska v1.4.0
Video
ID : 1
Format : AVC
Format/Info : Advanced Video Codec
Format profile : Main@L4.1
Format settings, CABAC : Yes
Format settings, ReFrames : 9 frames
Codec ID : V_MPEG4/ISO/AVC
Duration : 1h 12mn
Bit rate : 12.4 Mbps
Nominal bit rate : 10.4 Mbps
Width : 1 920 pixels
Height : 1 080 pixels
Display aspect ratio : 16:9
Frame rate : 23.976 fps
Color space : YUV
Chroma subsampling : 4:2:0
Bit depth : 8 bits
Scan type : Progressive
Bits/(Pixel*Frame) : 0.250
Stream size : 6.28 GiB (84%)
Writing library : x264 core 130 r2273 b3065e6
Encoding settings : cabac=1 / ref=9 / deblock=1:-3:-3 / analyse=0x1:0x131 / me=umh / subme=10 / psy=1 / psy_rd=1.00:0.00 / mixed_ref=1 / me_range=16 / chroma_me=1 / trellis=2 / 8x8dct=0 / cqm=0 / deadzone=21,11 / fast_pskip=0 / chroma_qp_offset=-4 / threads=6 / lookahead_threads=1 / sliced_threads=0 / nr=0 / decimate=0 / interlaced=0 / bluray_compat=0 / constrained_intra=0 / bframes=8 / b_pyramid=2 / b_adapt=0 / b_bias=0 / direct=3 / weightb=1 / open_gop=0 / weightp=2 / keyint=250 / keyint_min=23 / scenecut=40 / intra_refresh=0 / rc_lookahead=50 / rc=2pass / mbtree=1 / bitrate=10413 / ratetol=1.0 / qcomp=0.60 / qpmin=0 / qpmax=69 / qpstep=4 / cplxblur=20.0 / qblur=0.5 / ip_ratio=1.40 / aq=1:1.00
Default : Yes
Forced : No
Audio #1
ID : 2
Format : AC-3
Format/Info : Audio Coding 3
Mode extension : CM (complete main)
Format settings, Endianness : Big
Codec ID : A_AC3
Duration : 1h 12mn
Bit rate mode : Constant
Bit rate : 192 Kbps
Channel(s) : 2 channels
Channel positions : Front: L R
Sampling rate : 48.0 KHz
Bit depth : 16 bits
Compression mode : Lossy
Stream size : 99.2 MiB (1%)
Title : DUB «Пифагор»
Language : Russian
Default : Yes
Forced : No
Audio #2
ID : 3
Format : AC-3
Format/Info : Audio Coding 3
Mode extension : CM (complete main)
Format settings, Endianness : Big
Codec ID : A_AC3
Duration : 1h 12mn
Bit rate mode : Constant
Bit rate : 192 Kbps
Channel(s) : 2 channels
Channel positions : Front: L R
Sampling rate : 48.0 KHz
Bit depth : 16 bits
Compression mode : Lossy
Stream size : 99.2 MiB (1%)
Title : DUB Объединение «Русский дубляж» по заказу СТС
Language : Russian
Default : No
Forced : No
Audio #3
ID : 4
Format : AC-3
Format/Info : Audio Coding 3
Mode extension : CM (complete main)
Format settings, Endianness : Big
Codec ID : A_AC3
Duration : 1h 12mn
Bit rate mode : Constant
Bit rate : 192 Kbps
Channel(s) : 2 channels
Channel positions : Front: L R
Sampling rate : 48.0 KHz
Bit depth : 16 bits
Compression mode : Lossy
Stream size : 99.2 MiB (1%)
Title : MVO
Language : Russian
Default : No
Forced : No
Audio #4
ID : 5
Format : DTS
Format/Info : Digital Theater Systems
Format profile : MA / Core
Codec ID : A_DTS
Duration : 1h 12mn
Bit rate mode : Variable
Bit rate : 1 561 Kbps / 1 510 Kbps
Channel(s) : 6 channels
Channel positions : Front: L C R, Side: L R, LFE
Sampling rate : 48.0 KHz
Bit depth : 24 bits
Compression mode : Lossless / Lossy
Language : English
Default : No
Forced : No
Text
ID : 6
Format : UTF-8
Codec ID : S_TEXT/UTF8
Codec ID/Info : UTF-8 Plain Text
Language : English
Default : No
Forced : No
Menu
00:00:00.000 : en:00:00:00.000
00:05:23.740 : en:00:05:23.740
00:12:20.782 : en:00:12:20.782
00:20:24.390 : en:00:20:24.390
00:26:23.999 : en:00:26:23.999
00:32:17.686 : en:00:32:17.686
00:38:32.060 : en:00:38:32.060
00:46:17.566 : en:00:46:17.566
00:48:39.458 : en:00:48:39.458
00:54:47.534 : en:00:54:47.534
01:00:27.624 : en:01:00:27.624
01:07:26.167 : en:01:07:26.167
Показать сообщения:    

Текущее время: 23-Окт 03:19

Часовой пояс: UTC - 1


Вы не можете начинать темы
Вы не можете отвечать на сообщения
Вы не можете редактировать свои сообщения
Вы не можете удалять свои сообщения
Вы не можете голосовать в опросах
Вы не можете прикреплять файлы к сообщениям
Вы не можете скачивать файлы

!ВНИМАНИЕ!
Сайт не предоставляет электронные версии произведений, а занимается лишь коллекционированием и каталогизацией ссылок, присылаемых и публикуемых на форуме нашими читателями. Если вы являетесь правообладателем какого-либо представленного материала и не желаете, чтобы ссылка на него находилась в нашем каталоге, свяжитесь с нами, и мы незамедлительно удалим ее. Файлы для обмена на трекере предоставлены пользователями сайта, и администрация не несет ответственности за их содержание. Просьба не заливать файлы, защищенные авторскими правами, а также файлы нелегального содержания!