Ивановский Торрент трекер
Яндекс.Погода
 

[Цитировать]
HUNTER

Скуби-Ду и Король Гоблинов / Scooby-Doo And The Goblin King
Страна: США
Жанр: Мультипликация
Продолжительность: 01:14:14
Год выпуска: 2008
Перевод 1: Профессиональный (дублированный)
Перевод 2: Профессиональный (многоголосый закадровый)
Русские субтитры: есть-Режиссёр: Джо Сичта / Joe Sichta
Роли озвучивали: Фрэнк Уэлкер, Кэйси Касэм, Грэй ДеЛисл, Минди Кон, Уэйн Найт, Уоллес Шоун, Хайден Панеттьери, Тим Карри, Джеймс Белуши, Ларри Джо Кэмпбелл, Лорен Бэколл, Джей Лено-Описание: Удивительный Крадский, неудачный волшебник, крадет волшебную силу у принцессы, а Скуби-Ду и Шэгги должны остановить его, иначе все превратятся в ужасных монстров Хэллоуина! Наши герои отправляются по железной дороге Ужасного Жнеца в фантастический мир Хэллоуина, чтобы, вернуть скипетр Гоблина из рук короля Гоблинов до наступления полуночи.
По дороге они встречают Всадника Без Головы, своих помощников фонаря из тыквы и резвую метлу, которые ведут их в путешествие по загробной жизни.-Релиз от -
СПАСИБО -Azureus- за помощь в покупке данного мультфильма!-Качество: WEB-DL 1080p
Формат: MKV
Видео: AVC, 1920x1080 (16:9), 23.976 fps, 4 703 Kbps (0.095 bit/pixel)
Аудио 1: AC-3 Dolby Digital, 48.0 KHz, 2 ch, 192 Kbps, CBR (Russian) Дубляж
Аудио 2: AC-3, 48.0 KHz, 6 ch, 384 Kbps, CBR (Russian) Закадровый
Аудио 3: AC-3, 48.0 KHz, 6 ch, 384 Kbps, CBR (English) Оригинал
Субтитры: Russian, English
Семпл: Забираем тут

Подробные технические данные

ОбщееУникальный идентификатор : 199661549795599488269714940879671079205 (0x96356A6E8DAAD27F88A9E1ADE4473125)Полное имя : F:\Scooby-Doo and the Goblin King 1080p WEB-DL.mkvФормат : MatroskaВерсия формата : Version 4 / Version 2Размер файла : 3,00 ГбайтПродолжительность : 1 ч. 14 м.Общий поток : 5778 Кбит/секДата кодирования : UTC 2014-01-15 06:23:22Программа кодирования : mkvmerge v6.7.0 ('Back to the Ground') 32bit built on Jan 8 2014 15:03:17Библиотека кодирования : libebml v1.3.0 + libmatroska v1.4.1
ВидеоИдентификатор : 1Формат : AVCФормат/Информация : Advanced Video CodecПрофиль формата : High@L4.0Параметр CABAC формата : ДаПараметр ReFrames формата : 4 кадраИдентификатор кодека : V_MPEG4/ISO/AVCПродолжительность : 1 ч. 14 м.Битрейт : 4703 Кбит/секШирина : 1920 пикселейВысота : 1080 пикселейСоотношение сторон : 16:9Режим частоты кадров : ПостоянныйЧастота кадров : 23,976 кадра/секЦветовое пространство : YUVСубдискретизация насыщенности : 4:2:0Битовая глубина : 8 битТип развёртки : ПрогрессивнаяБит/(Пиксели*Кадры) : 0.095Размер потока : 2,44 Гбайт (81%)Язык : EnglishDefault : ДаForced : НетОсновные цвета : BT.709Характеристики трансфера : BT.709Коэффициенты матрицы : BT.709
Аудио #1Идентификатор : 2Формат : AC-3Формат/Информация : Audio Coding 3Профиль формата : Dolby DigitalРасширение режима : CM (complete main)Параметр Endianness формата : BigИдентификатор кодека : A_AC3Продолжительность : 1 ч. 14 м.Вид битрейта : ПостоянныйБитрейт : 192 Кбит/секКаналы : 2 каналаРасположение каналов : Front: L RЧастота : 48,0 КГцБитовая глубина : 16 битМетод сжатия : С потерямиРазмер потока : 102 Мбайт (3%)Заголовок : DUBЯзык : RussianDefault : ДаForced : Нет
Аудио #2Идентификатор : 3Формат : AC-3Формат/Информация : Audio Coding 3Расширение режима : CM (complete main)Параметр Endianness формата : BigИдентификатор кодека : A_AC3Продолжительность : 1 ч. 14 м.Вид битрейта : ПостоянныйБитрейт : 384 Кбит/секКаналы : 6 каналовРасположение каналов : Front: L C R, Side: L R, LFEЧастота : 48,0 КГцБитовая глубина : 16 битМетод сжатия : С потерямиРазмер потока : 204 Мбайт (7%)Заголовок : MVOЯзык : RussianDefault : НетForced : Нет
Аудио #3Идентификатор : 4Формат : AC-3Формат/Информация : Audio Coding 3Расширение режима : CM (complete main)Параметр Endianness формата : BigИдентификатор кодека : A_AC3Продолжительность : 1 ч. 14 м.Вид битрейта : ПостоянныйБитрейт : 384 Кбит/секКаналы : 6 каналовРасположение каналов : Front: L C R, Side: L R, LFEЧастота : 48,0 КГцБитовая глубина : 16 битМетод сжатия : С потерямиРазмер потока : 204 Мбайт (7%)Заголовок : OriginalЯзык : EnglishDefault : НетForced : Нет
Текст #1Идентификатор : 5Формат : UTF-8Идентификатор кодека : S_TEXT/UTF8Идентификатор кодека/Информация : UTF-8 Plain TextЗаголовок : Sub RusЯзык : RussianDefault : НетForced : Нет
Текст #2Идентификатор : 6Формат : UTF-8Идентификатор кодека : S_TEXT/UTF8Идентификатор кодека/Информация : UTF-8 Plain TextЗаголовок : Sub EngЯзык : EnglishDefault : НетForced : Нет
Меню00:00:00.000 : en:Chapter 1.00:06:32.000 : en:Chapter 2.00:11:06.000 : en:Chapter 3.00:17:18.000 : en:Chapter 4.00:24:23.000 : en:Chapter 5.00:28:46.000 : en:Chapter 6.00:34:55.000 : en:Chapter 7.00:39:13.000 : en:Chapter 8.00:42:49.000 : en:Chapter 9.00:45:37.000 : en:Chapter 10.00:51:30.000 : en:Chapter 11.00:56:05.000 : en:Chapter 12.01:03:10.000 : en:Chapter 13.01:08:57.000 : en:Chapter 14.01:10:35.000 : en:Chapter 15.

Скриншоты



Показать сообщения:    

Текущее время: 18-Окт 03:01

Часовой пояс: UTC - 1


Вы не можете начинать темы
Вы не можете отвечать на сообщения
Вы не можете редактировать свои сообщения
Вы не можете удалять свои сообщения
Вы не можете голосовать в опросах
Вы не можете прикреплять файлы к сообщениям
Вы не можете скачивать файлы

!ВНИМАНИЕ!
Сайт не предоставляет электронные версии произведений, а занимается лишь коллекционированием и каталогизацией ссылок, присылаемых и публикуемых на форуме нашими читателями. Если вы являетесь правообладателем какого-либо представленного материала и не желаете, чтобы ссылка на него находилась в нашем каталоге, свяжитесь с нами, и мы незамедлительно удалим ее. Файлы для обмена на трекере предоставлены пользователями сайта, и администрация не несет ответственности за их содержание. Просьба не заливать файлы, защищенные авторскими правами, а также файлы нелегального содержания!