Ивановский Торрент трекер
Яндекс.Погода
 

[Цитировать]
HUNTER

Скуби-Ду! Истории летнего лагеряScooby-Doo! Camp Scare Год выхода: 2010
Страна: США
Жанр: мультфильм, боевик, комедия, детектив, приключения
Продолжительность: 01:12:31
Перевод: Дублированное [лицензия]
Субтитры: Russian,English-В ролях: Фрэнк Уэлкер, Минди Кон, Мэттью Лиллард, Грей ДеЛайл, Ди Брэдли Бейкер, Марк Хэмилл, Фил ЛаМарр, Скотт Менвилль, Стивен Рут, Тара Стронг
Режиссер: Этан Сполдинг-Описание:
Добро пожаловать в лагерь «Лосёнок», где приветливые вожатые, бесконечные мероприятия и много жутких местных легенд! Кстати, каждый раз, когда кто-то рассказывает историю о призраках, жуткие существа оживают! Но команду Корпорации Тайн не так легко испугать, так что собирайтесь вокруг костра, чтобы поджарить плохих парней. Скуби-Ду, Шэгги, Фредди, Дафни и Велма ищут подсказки для разгадки тайн Дровосека, Рыбака и Банши Чёрного Каньона. И, конечно, Шэгги и Скуби-Ду идут по горячим следам в деле «А что у нас на ужин»! Присоединяйтесь к летнему веселью с Корпорацией Тайн в этом уморительном, полнометражном мультфильме, который придаёт новый смысл понятию «дух лагеря»!-Качество: BDRip 1080p
Формат: MKV
Видео: 1920x1080 at 23.976 fps, x264 @ L4.1, crf, ~7420 kbps avg
Аудио#1: Russian: 48 kHz, AC3, 2/0 (L,R) ch, ~192 kbps avg |Дубляж, Студия "Пифагор"|
Аудио#2: English: 48 kHz, AC3, 3/2 (L,C,R,l,r) + LFE ch, ~640 kbps avg
Сохранены оригинальные чаптеры как на Blu-ray.-Релиз группы:

MediaInfo

Общее
Уникальный идентификатор : 178742150677725227076426121074214888302 (0x86787C6C8E7652F7AD08940E1272E36E)
Полное имя : D:\Scooby Doo!Camp Scare.mkv
Формат : Matroska
Версия формата : Version 2
Размер файла : 4,27 Гбайт
Продолжительность : 1 ч. 12 м.
Общий поток : 8419 Кбит/сек
Название фильма : Scooby-Doo! Camp Scare (2010)
Дата кодирования : UTC 2012-11-03 09:02:26
Программа кодирования : mkvmerge v5.8.0 ('No Sleep / Pillow') built on Sep 2 2012 15:37:04
Библиотека кодирования : libebml v1.2.3 + libmatroska v1.3.0
Видео
Идентификатор : 1
Формат : AVC
Формат/Информация : Advanced Video Codec
Профиль формата : High@L4.1
Параметр CABAC формата : Да
Параметр ReFrames формата : 4 кадра
Идентификатор кодека : V_MPEG4/ISO/AVC
Продолжительность : 1 ч. 12 м.
Битрейт : 7420 Кбит/сек
Ширина : 1920 пикселей
Высота : 1080 пикселей
Соотношение сторон : 16:9
Частота кадров : 23,976 кадра/сек
Цветовое пространство : YUV
Субдискретизация насыщенности : 4:2:0
Битовая глубина : 8 бит
Тип развёртки : Прогрессивная
Бит/(Пиксели*Кадры) : 0.149
Размер потока : 3,76 Гбайт (88%)
Заголовок : Release for HDCLUB
Библиотека кодирования : x264 core 128 r2216 198a7ea
Настройки программы : cabac=1 / ref=4 / deblock=1:-1:-1 / analyse=0x3:0x133 / me=umh / subme=11 / psy=1 / psy_rd=0.90:0.00 / mixed_ref=1 / me_range=48 / chroma_me=1 / trellis=2 / 8x8dct=1 / cqm=0 / deadzone=21,11 / fast_pskip=0 / chroma_qp_offset=-2 / threads=12 / lookahead_threads=2 / sliced_threads=0 / nr=0 / decimate=1 / interlaced=0 / bluray_compat=0 / constrained_intra=0 / bframes=9 / b_pyramid=2 / b_adapt=2 / b_bias=0 / direct=3 / weightb=1 / open_gop=0 / weightp=2 / keyint=240 / keyint_min=24 / scenecut=40 / intra_refresh=0 / rc=crf / mbtree=0 / crf=17.3 / qcomp=0.60 / qpmin=0 / qpmax=69 / qpstep=4 / ip_ratio=1.40 / pb_ratio=1.30 / aq=1:0.80
Язык : English
Default : Да
Forced : Нет
Аудио #1
Идентификатор : 2
Формат : AC-3
Формат/Информация : Audio Coding 3
Профиль формата : Dolby Digital
Расширение режима : CM (complete main)
Идентификатор кодека : A_AC3
Продолжительность : 1 ч. 12 м.
Вид битрейта : Постоянный
Битрейт : 192 Кбит/сек
Каналы : 2 канала
Расположение каналов : Front: L R
Частота : 48,0 КГц
Битовая глубина : 16 бит
Метод сжатия : С потерями
Размер потока : 99,6 Мбайт (2%)
Заголовок : (AC3 2.0 @ 192 kbps - Дубляж, Студия "Пифагор" )
Язык : Russian
Default : Да
Forced : Нет
Аудио #2
Идентификатор : 3
Формат : AC-3
Формат/Информация : Audio Coding 3
Расширение режима : CM (complete main)
Идентификатор кодека : A_AC3
Продолжительность : 1 ч. 12 м.
Вид битрейта : Постоянный
Битрейт : 640 Кбит/сек
Каналы : 6 каналов
Расположение каналов : Front: L C R, Side: L R, LFE
Частота : 48,0 КГц
Битовая глубина : 16 бит
Метод сжатия : С потерями
Размер потока : 332 Мбайт (8%)
Заголовок : (AC3 5.1 @ 640 kbps - Original)
Язык : English
Default : Нет
Forced : Нет
Текст #1
Идентификатор : 4
Формат : UTF-8
Идентификатор кодека : S_TEXT/UTF8
Идентификатор кодека/Информация : UTF-8 Plain Text
Заголовок : SRT
Язык : Russian
Default : Нет
Forced : Нет
Текст #2
Идентификатор : 5
Формат : UTF-8
Идентификатор кодека : S_TEXT/UTF8
Идентификатор кодека/Информация : UTF-8 Plain Text
Заголовок : SRT
Язык : English
Default : Нет
Forced : Нет
Меню
00:00:00.000 : :Chapter 01
00:06:05.655 : :Chapter 02
00:15:44.359 : :Chapter 03
00:27:54.797 : :Chapter 04
00:37:26.285 : :Chapter 05
00:49:44.356 : :Chapter 06
00:59:21.099 : :Chapter 07
01:08:03.579 : :Chapter 08
01:12:30.845 : :Chapter 09

Скриншоты



Показать сообщения:    

Текущее время: 15-Дек 02:44

Часовой пояс: UTC ± 0


Вы не можете начинать темы
Вы не можете отвечать на сообщения
Вы не можете редактировать свои сообщения
Вы не можете удалять свои сообщения
Вы не можете голосовать в опросах
Вы не можете прикреплять файлы к сообщениям
Вы не можете скачивать файлы

!ВНИМАНИЕ!
Сайт не предоставляет электронные версии произведений, а занимается лишь коллекционированием и каталогизацией ссылок, присылаемых и публикуемых на форуме нашими читателями. Если вы являетесь правообладателем какого-либо представленного материала и не желаете, чтобы ссылка на него находилась в нашем каталоге, свяжитесь с нами, и мы незамедлительно удалим ее. Файлы для обмена на трекере предоставлены пользователями сайта, и администрация не несет ответственности за их содержание. Просьба не заливать файлы, защищенные авторскими правами, а также файлы нелегального содержания!