Важное объявление!
У Нас Все раздачи мультитрекерные, при нуле пиров в релизах, можете смело вставать на закачку!
 
Автор Сообщение

HUNTER

Стаж:
4 года 8 месяцев
Сообщений:
61985

Репутация: 101

[+] [-]
Вне форума [Профиль] [ЛС]

Скуби-Ду! Безумие Лунного Монстра / Scooby-Doo! Moon Monster Madness
Страна: США
Жанр: Ужасы, Детектив, Комедия
Продолжительность: 01:19:37
Год выпуска: 2015
Перевод: Субтитры
Русские субтитры: есть
Главы: нет-Режиссёр: Пол МакЭвой / Paul McEvoy
Описание: Один гигантский шаг для собаки, ведь Скуби-Ду и его команда стартуют в эпическое неземное приключение! После выигрыша последних 5 мест в лотерее Скуби-Ду, Шегги, Фред, Дафни и Велма отправляются в космос на новом космическом корабле миллионера Слая Бэрона - "Sly Star One". Все идет легко и весело, пока загадочный пришелец не начинает разрушать корабль! Поскольку корабль приходит в негодность, команда вынуждена высадиться на базу Слая Бэрона... на темной стороне луны!
Раскроет ли команда эту инопланетную тайну?
Найдут ли Скуби-Ду и Шегги снэки на луне?
Снимет ли Фред когда-нибудь свой космический шлем?!
Отправляйтесь в путешествие в открытый космос со Скуби-Ду, чтобы выяснить это!
-Качество: WEB-DL 1080p
Формат: MKV
Видео: MPEG-4 AVC | 1912x1072 | 23.976 fps | 4892 kbps
Аудио: ENG | AC-3 | 48.0 kHz | 6 ch | 384 kbps
Субтитры 1: RUS | SRT | UTF-8 | перевод - yaroslav230596
Субтитры 2: ENG | SRT | UTF-8
Семпл

Пример субтитров

110801:16:24,935 --> 01:16:27,869Тихонько, просто выжми сцепление,полегче!
110901:16:27,871 --> 01:16:30,271Черт возьми!
111001:16:30,273 --> 01:16:32,006Я стараюсь, Фред.
111101:16:32,008 --> 01:16:34,008Наверное, что-то не так с педалью.
111201:16:34,010 --> 01:16:36,844- Ладно, успокойся.- Я спокойна!
111301:16:36,846 --> 01:16:41,214- Даф, почему бы тебе не попытаться...- Велма, почему бы тебе не попытатьсяперестать давать мне советы!
111401:16:41,216 --> 01:16:43,349Я управляла космическим кораблем,ради всего святого!
111501:16:43,351 --> 01:16:45,451Думаю, я смогу управитьсяс Мистической Машиной.
111601:16:45,453 --> 01:16:47,986Ладно, ладно. Просто пытаюсь помочь.
111701:16:48,722 --> 01:16:50,788Трогайся.
111801:16:50,790 --> 01:16:52,689Тише. Тише!

Подробные технические данные

GeneralUnique ID : 243931624429942681055552843048131382623 (0xB78385A0F51713BE90C990CA20864D5F)Complete name : D:\ЗАГРУЗКА\2015 Scooby-Doo! Moon Monster Madness WEB-DL 1080p [ENG] {RUS} {ENG}.mkvFormat : MatroskaFormat version : Version 4 / Version 2File size : 2.99 GiBDuration : 1h 19mnOverall bit rate : 5 383 KbpsMovie name : 2015 Scooby-Doo! Moon Monster MadnessEncoded date : UTC 2015-02-08 22:52:45Writing application : mkvmerge v7.5.0 ('Glass Culture') 64bit built on Jan 4 2015 16:48:44Writing library : libebml v1.3.1 + libmatroska v1.4.2Attachements : cover.pngDURATION : 01:16:54.890000000NUMBER_OF_FRAMES : 1285NUMBER_OF_BYTES : 44801_STATISTICS_WRITING_APP : mkvmerge v7.5.0 ('Glass Culture') 64bit built on Jan 4 2015 16:48:44_STATISTICS_WRITING_DATE_UT : 2015-02-08 22:52:45_STATISTICS_TAGS : BPS DURATION NUMBER_OF_FRAMES NUMBER_OF_BYTES
VideoID : 1Format : AVCFormat/Info : Advanced Video CodecFormat profile : High@L4.0Format settings, CABAC : YesFormat settings, ReFrames : 4 framesCodec ID : V_MPEG4/ISO/AVCDuration : 1h 19mnBit rate : 4 892 KbpsWidth : 1 912 pixelsHeight : 1 072 pixelsDisplay aspect ratio : 16:9Frame rate mode : ConstantFrame rate : 23.976 fpsColor space : YUVChroma subsampling : 4:2:0Bit depth : 8 bitsScan type : ProgressiveBits/(Pixel*Frame) : 0.100Stream size : 2.72 GiB (91%)Language : EnglishDefault : YesForced : NoColor primaries : BT.709Transfer characteristics : BT.709Matrix coefficients : BT.709Color range : Limited
AudioID : 2Format : AC-3Format/Info : Audio Coding 3Mode extension : CM (complete main)Format settings, Endianness : BigCodec ID : A_AC3Duration : 1h 19mnBit rate mode : ConstantBit rate : 384 KbpsChannel(s) : 6 channelsChannel positions : Front: L C R, Side: L R, LFESampling rate : 48.0 KHzBit depth : 16 bitsCompression mode : LossyStream size : 219 MiB (7%)Language : EnglishDefault : YesForced : No
Text #1ID : 3Format : UTF-8Codec ID : S_TEXT/UTF8Codec ID/Info : UTF-8 Plain TextTitle : yaroslav230596Language : RussianDefault : YesForced : No
Text #2ID : 4Format : UTF-8Codec ID : S_TEXT/UTF8Codec ID/Info : UTF-8 Plain TextTitle : SDHLanguage : EnglishDefault : NoForced : No

_________________
Показать сообщения:    

Текущее время: Сегодня 23:23

Часовой пояс: GMT



Вы не можете начинать темы
Вы не можете отвечать на сообщения
Вы не можете редактировать свои сообщения
Вы не можете удалять свои сообщения
Вы не можете голосовать в опросах
Вы не можете прикреплять файлы к сообщениям
Вы не можете скачивать файлы
Наши партнеры: интернет магазин Ивановского трикотажа textilla.ru