Важное объявление!
У Нас Все раздачи мультитрекерные, при нуле пиров в релизах, можете смело вставать на закачку!
 
Автор Сообщение

димитри37

Стаж:
4 года
Сообщений:
1236

Репутация: 127

[+] [-]
Вне форума [Профиль] [ЛС]

Скорость / Speed
Год выпуска: 1994
Выпущено: США / 20th Century Fox Film Corporation
Жанр: боевик, триллер, криминал
Продолжительность: 01:55:55
Перевод #1: Профессиональный (полное дублирование)
Перевод #2: Авторский (одноголосый закадровый)
Cубтитры: нет
Режиссер: Ян де Бонт / Jan de Bont
В ролях: Киану Ривз (Officer Jack Traven), Сандра Буллок (Annie Porter), Деннис Хоппер (Howard Payne), Джо Мортон (Capt. McMahon), Джефф Дэниелс (Det. Harold «Harry» Temple), Алан Рак (Stephens), Гленн Пламмер (Jaguar Owner), Ричард Лайнбэк (Norwood), Бет Грант (Helen), Хоторн Джеймс (Sam)
Описание: Представьте себе девушку, у которой на заднем стекле автомобиля красуется наклейка с восклицательным знаком, чайником и странного вида туфлей с подписью «уважай меня». Теперь представьте эту девушку за рулем гигантского американского автобуса, несущегося по городу на огромной скорости в час пик. Выглядит это довольно забавно, если не знать, что автобус заминирован и может взорваться, если стрелка спидометра опустится ниже пятидесяти миль в час.
Пассажиры в панике, события разворачивается с бешеной скоростью, а времени до взрыва остается все меньше. На поиски таинственного террориста, который уже доказал серьезность своих намерений, взорвав переполненный людьми лифт, брошены элитные подразделения полиции. Но время идет, а выйти на след преступника так и не удается. В противоборство с террористом вступает лучший боец спецназа Джек Трейвен. Теперь от того, сможет ли он верно распорядиться оставшимися секундами, зависят жизни десятков людей.

Качество: BDRip
Формат: AVI
Видео: 720x304 (2.37:1), 23.976 fps, XviD build 73 ~1407 kbps avg, 0.27 bit/pixel
Аудио #1: 48 kHz, AC3 Dolby Digital, 2/0 (L,R) ch, ~192.00 kbps avg (DUB)
Аудио #2: 48 kHz, AC3 Dolby Digital, 2/0 (L,R) ch, ~192.00 kbps avg (AVO)

Скриншоты

MediaInfo

Код:
General
Complete name                            : D:\Фильмы\Мои релизы\Skorost’_1994_BDRip_by_Dalemake.avi
Format                                   : AVI
Format/Info                              : Audio Video Interleave
File size                                : 1.46 GiB
Duration                                 : 1h 55mn
Overall bit rate                         : 1 806 Kbps
Writing application                      : VirtualDubMod 1.5.10.3 | www.virtualdub-fr.org || (build 2550/release)
Writing library                          : VirtualDubMod build 2550/release
Video
ID                                       : 0
Format                                   : MPEG-4 Visual
Format profile                           : Advanced Simple@L5
Format settings, BVOP                    : 1
Format settings, QPel                    : No
Format settings, GMC                     : No warppoints
Format settings, Matrix                  : Custom
Codec ID                                 : XVID
Codec ID/Hint                            : XviD
Duration                                 : 1h 55mn
Bit rate                                 : 1 408 Kbps
Width                                    : 720 pixels
Height                                   : 304 pixels
Display aspect ratio                     : 2.35:1
Frame rate                               : 23.976 fps
Color space                              : YUV
Chroma subsampling                       : 4:2:0
Bit depth                                : 8 bits
Scan type                                : Progressive
Compression mode                         : Lossy
Bits/(Pixel*Frame)                       : 0.268
Stream size                              : 1.14 GiB (78%)
Writing library                          : XviD 73
Audio #1
ID                                       : 1
Format                                   : AC-3
Format/Info                              : Audio Coding 3
Mode extension                           : CM (complete main)
Format settings, Endianness              : Big
Codec ID                                 : 2000
Duration                                 : 1h 55mn
Bit rate mode                            : Constant
Bit rate                                 : 192 Kbps
Channel(s)                               : 2 channels
Channel positions                        : Front: L R
Sampling rate                            : 48.0 KHz
Bit depth                                : 16 bits
Compression mode                         : Lossy
Stream size                              : 159 MiB (11%)
Alignment                                : Split accross interleaves
Interleave, duration                     : 42 ms (1.00 video frame)
Interleave, preload duration             : 500 ms
Audio #2
ID                                       : 2
Format                                   : AC-3
Format/Info                              : Audio Coding 3
Mode extension                           : CM (complete main)
Format settings, Endianness              : Big
Codec ID                                 : 2000
Duration                                 : 1h 55mn
Bit rate mode                            : Constant
Bit rate                                 : 192 Kbps
Channel(s)                               : 2 channels
Channel positions                        : Front: L R
Sampling rate                            : 48.0 KHz
Bit depth                                : 16 bits
Compression mode                         : Lossy
Delay relative to video                  : 1s 0ms
Stream size                              : 159 MiB (11%)
Alignment                                : Split accross interleaves
Interleave, duration                     : 42 ms (1.00 video frame)
Interleave, preload duration             : 500 ms

bot

Вне форума [Профиль] [ЛС]

Топик был перенесен из форума Новые релизы в форум Новые релизы
димитри37
 
Показать сообщения:    

Текущее время: Сегодня 22:47

Часовой пояс: GMT



Вы не можете начинать темы
Вы не можете отвечать на сообщения
Вы не можете редактировать свои сообщения
Вы не можете удалять свои сообщения
Вы не можете голосовать в опросах
Вы не можете прикреплять файлы к сообщениям
Вы не можете скачивать файлы
Наши партнеры: интернет магазин Ивановского трикотажа textilla.ru