Ивановский Торрент трекер
Яндекс.Погода
 

[Цитировать]
HUNTER

Сквозь время / серии 1-3 из 3 -Название: Сквозь время
Год выпуска: 2013
Страна: Россия, Израиль
Производство: Ari Films
Жанр: телепередача
Продолжительность: 02:53:10
Перевод: оригинал (русский язык)
Субтитры: нет-В ролях: М. Лайтман, М. Маркин
Режиссёр: Семён Винокур-Описание: Мы восходим на такую ступень развития человечества, где действуют интегральные законы. А это - законы аналоговой системы, где все зависят от всех: начало, конец, середина - всё взаимосвязано и в каждый момент времени находится в равновесии, как саморегулирующая, самоподдерживающая, самоустойчивая система. Такой является вся природа и такими мы должны быть в ней: начать ощущать всеобщую, взаимосвязанную, гармоничную, интегральную природу и себя, как её неотъемлемую часть...-Качество: WEB-DLRip
Формат: MP4
Видеокодек: MPEG-4 AVC (H.264)
Аудиокодек: ACC
Видео: 720 x 400, 25,000 fps, 450 Kbps, 0.063 bit/pixel
Аудио: 44,1 kHz, 1 ch, 32 kb/s- Аудиоверсия телепередачи Сквозь время / выпуски 1-3 из 3

Скриншоты

MediaInfo


ОбщееПолное имя : teleprogramma.Skvoz_vremja.2013.WEB-DLRip.Rus.Mp4\2013-03-17_Сквозь_время_01.mp4Формат : MPEG-4Профиль формата : Base MediaИдентификатор кодека : isomРазмер файла : 233 МбайтПродолжительность : 1 ч. 6 м.Режим общего битрейта : ПеременныйОбщий поток : 487 Кбит/секПрограмма кодирования : Lavf52.93.0
ВидеоИдентификатор : 1Формат : AVCФормат/Информация : Advanced Video CodecПрофиль формата : Baseline@L3.0Параметр CABAC формата : НетПараметр ReFrames формата : 1 кадрИдентификатор кодека : avc1Идентификатор кодека/Информация : Advanced Video CodingПродолжительность : 1 ч. 6 м.Битрейт : 450 Кбит/секШирина : 720 пикселейВысота : 400 пикселейСоотношение сторон : 16:9Режим частоты кадров : ПостоянныйЧастота кадров : 25,000 кадров/секЦветовое пространство : YUVСубдискретизация насыщенности : 4:2:0Битовая глубина : 8 битТип развёртки : ПрогрессивнаяБит/(Пиксели*Кадры) : 0.063Размер потока : 215 Мбайт (93%)Библиотека кодирования : x264 core 112
АудиоИдентификатор : 2Формат : AACФормат/Информация : Advanced Audio CodecПрофиль формата : LCИдентификатор кодека : 40Продолжительность : 1 ч. 6 м.Вид битрейта : ПеременныйБитрейт : 32,0 Кбит/секКаналы : 2 каналаOriginal Channel count : 1 каналРасположение каналов : Front: CЧастота : 44,1 КГцМетод сжатия : С потерямиРазмер потока : 15,3 Мбайт (7%)

Список серий


01. 2013-03-17_Сквозь_время_01 - (66:50)
02. 2013-03-18_Сквозь_время_02 - (54:06)
03. 2013-03-20_Сквозь_время_03 - (52:13)


Показать сообщения:    

Текущее время: 13-Дек 20:29

Часовой пояс: UTC ± 0


Вы не можете начинать темы
Вы не можете отвечать на сообщения
Вы не можете редактировать свои сообщения
Вы не можете удалять свои сообщения
Вы не можете голосовать в опросах
Вы не можете прикреплять файлы к сообщениям
Вы не можете скачивать файлы

!ВНИМАНИЕ!
Сайт не предоставляет электронные версии произведений, а занимается лишь коллекционированием и каталогизацией ссылок, присылаемых и публикуемых на форуме нашими читателями. Если вы являетесь правообладателем какого-либо представленного материала и не желаете, чтобы ссылка на него находилась в нашем каталоге, свяжитесь с нами, и мы незамедлительно удалим ее. Файлы для обмена на трекере предоставлены пользователями сайта, и администрация не несет ответственности за их содержание. Просьба не заливать файлы, защищенные авторскими правами, а также файлы нелегального содержания!