Ивановский Торрент трекер
Яндекс.Погода
 

[Цитировать]
HUNTER

Скачущие издалека / The Long Riders
Страна: США
Студия: Huka Productions
Жанр: вестерн
Год выпуска: 1980
Продолжительность: 01:39:40
Перевод 1: Профессиональный (двухголосый закадровый) НТВ+
Перевод 2: Профессиональный (многоголосый закадровый) Н-Кино
Перевод 3: Профессиональный (двухголосый закадровый) Андрей Градов и Ирина Маликова
Перевод 4: Авторский (одноголосый закадровый) Сергей Визгунов
Cубтитры: русские, английские
Оригинальная аудиодорожка: английский
Режиссер: Уолтер Хилл / Walter Hill
В ролях: Дэвид Кэрредин, Кит Кэрредин, Роберт Кэрредин, Джеймс Кич, Стейси Кич, Деннис Куэйд, Рэнди Куэйд, Кевин Брофи, Гарри Кэри мл., Кристофер Гест, Николас Гест, Шелби Леверингтон, Феличе Орланди, Памела Рид, Джеймс Римар, Фран Райан, Саванна Смит Бучер, Эми Страйкер, Джеймс Уитмор мл., Джон Боттомс, Уэст Бьюкэнэн, Эдвард Банкер, Мартина Дэйнан, Аллан Граф, Крис Малки, Томас Майерс, Marlise Pierrat, Гленн Робардс, Тим Россович, Лин Шэй, Гари Уоткинс, Питер Джейсон, Дьюк Страуд, Стивен Чэмберс, Уильям Трейлор, Дж. Дон Фергюсон, Хью МакГроу, Прентисс Роу, Стюарт Моссман, Майкл Лэки, Mitch Greenhill, Билл Брайсон, Том Заубер, Jimmy Medearis, Эдгар МакЛеод, Луис Контрерас, Kalen Keach, Р.Б. Трифт, Эвер Кэрредин, Рай Кудер
Описание: Знаменитая банда Малыша Джеймса — самая крутая шайка грабителей банков, поездов и дилижансов. Преисполненные отваги, они слывут в народе местными героями. Но поймать их клянется само всемогущее сыскное агентство Пинкертона, а это значит, что бандитам предстоит встреча со смертельным врагом. Выбор небогат: оказаться за решеткой или погибнуть. Только сила воли и кровное родство дают гангстерам надежду на спасение в обстановке жестокой погони, неожиданных предательств и жарких стычек, обещающих скорый конец их опасной одиссеи.
II Сэмпл II IMDB II
Доп. информация:
Исходник
К дорогам исходника добавлен перевод НТВ+, запись звука с т/к MGM HD - vedigo
Тип релиза: BDRip 1080p
Контейнер: MKV
Видео: AVC / 1920x1040 / 1.85:1 / 25.0fps / Bit rate 21995Kbps
Аудио 1: AC3 / 48.0 KHz / 2ch. / 192kbps / rus / dvo
Аудио 2: AC3 / 48.0 KHz / 2ch. / 192kbps / rus / mvo
Аудио 3: AC3 / 48.0 KHz / 2ch. / 192kbps / rus / dvo
Аудио 4: AC3 / 48.0 KHz / 2ch. / 192kbps / rus / avo
Аудио 5: Flac / 48.0 KHz / 2ch. / 847kbps / eng
Формат субтитров: softsub (SRT)

MediaInfo

Общее
Уникальный идентификатор : 179381785103496685824724009095229562905 (0x86F3ACD607CDF6A4B1C12570AB4F6019)
Полное имя : E:\torrent\Long.Riders.1980.BDRip.1080p.mkv
Формат : Matroska
Версия формата : Version 4 / Version 2
Размер файла : 16,4 Гбайт
Продолжительность : 1 ч. 39 м.
Режим общего битрейта : Переменный
Общий поток : 23,6 Мбит/сек
Дата кодирования : UTC 2014-08-11 02:28:36
Программа кодирования : mkvmerge v7.1.0 ('Good Love') 64bit built on Jul 27 2014 13:06:55
Библиотека кодирования : libebml v1.3.0 + libmatroska v1.4.1
DURATION : 01:36:45.424000000
NUMBER_OF_FRAMES : 754
NUMBER_OF_BYTES : 27440
_STATISTICS_WRITING_APP : mkvmerge v7.1.0 ('Good Love') 64bit built on Jul 27 2014 13:06:55
_STATISTICS_WRITING_DATE_UTC : 2014-08-11 02:28:36
_STATISTICS_TAGS : BPS DURATION NUMBER_OF_FRAMES NUMBER_OF_BYTES
Видео
Идентификатор : 1
Формат : AVC
Формат/Информация : Advanced Video Codec
Профиль формата : High@L4.1
Параметр CABAC формата : Да
Параметр ReFrames формата : 4 кадра
Идентификатор кодека : V_MPEG4/ISO/AVC
Продолжительность : 1 ч. 39 м.
Номинальный битрейт : 22,0 Мбит/сек
Ширина : 1920 пикселей
Высота : 1040 пикселей
Соотношение сторон : 1,85:1
Режим частоты кадров : Постоянный
Частота кадров : 23,976 кадра/сек
Цветовое пространство : YUV
Субдискретизация насыщенности : 4:2:0
Битовая глубина : 8 бит
Тип развёртки : Прогрессивная
Бит/(Пиксели*Кадры) : 0.460
Заголовок : Long.Riders.1980.BDRip.1080p
Библиотека кодирования : x264 core 133 r2334 a3ac64b
Настройки программы : cabac=1 / ref=4 / deblock=1:-1:-1 / analyse=0x3:0x133 / me=umh / subme=11 / psy=1 / psy_rd=1.00:0.10 / mixed_ref=1 / me_range=36 / chroma_me=1 / trellis=2 / 8x8dct=1 / cqm=0 / deadzone=21,11 / fast_pskip=0 / chroma_qp_offset=-3 / threads=12 / lookahead_threads=2 / sliced_threads=0 / nr=0 / decimate=1 / interlaced=0 / bluray_compat=0 / constrained_intra=0 / bframes=7 / b_pyramid=2 / b_adapt=2 / b_bias=0 / direct=3 / weightb=1 / open_gop=0 / weightp=2 / keyint=250 / keyint_min=23 / scenecut=40 / intra_refresh=0 / rc_lookahead=50 / rc=2pass / mbtree=1 / bitrate=22000 / ratetol=1.0 / qcomp=0.60 / qpmin=0 / qpmax=69 / qpstep=4 / cplxblur=20.0 / qblur=0.5 / vbv_maxrate=50000 / vbv_bufsize=62500 / nal_hrd=none / ip_ratio=1.40 / aq=1:1.00
Default : Да
Forced : Нет
DURATION : 01:39:40.058000000
NUMBER_OF_FRAMES : 143378
NUMBER_OF_BYTES : 16441600771
_STATISTICS_WRITING_APP : mkvmerge v7.1.0 ('Good Love') 64bit built on Jul 27 2014 13:06:55
_STATISTICS_WRITING_DATE_UTC : 2014-08-11 02:28:36
_STATISTICS_TAGS : BPS DURATION NUMBER_OF_FRAMES NUMBER_OF_BYTES
Аудио #1
Идентификатор : 2
Формат : AC-3
Формат/Информация : Audio Coding 3
Расширение режима : CM (complete main)
Параметр Endianness формата : Big
Идентификатор кодека : A_AC3
Продолжительность : 1 ч. 39 м.
Вид битрейта : Постоянный
Битрейт : 192 Кбит/сек
Каналы : 2 канала
Расположение каналов : Front: L R
Частота : 48,0 КГц
Битовая глубина : 16 бит
Метод сжатия : С потерями
Размер потока : 137 Мбайт (1%)
Заголовок : rus / dvo / NTV+ / AC3 /2ch / 192Kbps
Язык : Russian
Default : Да
Forced : Нет
Аудио #2
Идентификатор : 3
Формат : AC-3
Формат/Информация : Audio Coding 3
Расширение режима : CM (complete main)
Параметр Endianness формата : Big
Идентификатор кодека : A_AC3
Продолжительность : 1 ч. 39 м.
Вид битрейта : Постоянный
Битрейт : 192 Кбит/сек
Каналы : 2 канала
Расположение каналов : Front: L R
Частота : 48,0 КГц
Битовая глубина : 16 бит
Метод сжатия : С потерями
Размер потока : 137 Мбайт (1%)
Заголовок : rus / mvo / N-Kino / AC3 / 2ch / 192Kbps
Язык : Russian
Default : Нет
Forced : Нет
Аудио #3
Идентификатор : 4
Формат : AC-3
Формат/Информация : Audio Coding 3
Расширение режима : CM (complete main)
Параметр Endianness формата : Big
Идентификатор кодека : A_AC3
Продолжительность : 1 ч. 39 м.
Вид битрейта : Постоянный
Битрейт : 192 Кбит/сек
Каналы : 2 канала
Расположение каналов : Front: L R
Частота : 48,0 КГц
Битовая глубина : 16 бит
Метод сжатия : С потерями
Размер потока : 137 Мбайт (1%)
Заголовок : rus / dvo / AC3 / 2ch / 192Kbps
Язык : Russian
Default : Нет
Forced : Нет
Аудио #4
Идентификатор : 5
Формат : AC-3
Формат/Информация : Audio Coding 3
Расширение режима : CM (complete main)
Параметр Endianness формата : Big
Идентификатор кодека : A_AC3
Продолжительность : 1 ч. 39 м.
Вид битрейта : Постоянный
Битрейт : 192 Кбит/сек
Каналы : 2 канала
Расположение каналов : Front: L R
Частота : 48,0 КГц
Битовая глубина : 16 бит
Метод сжатия : С потерями
Размер потока : 137 Мбайт (1%)
Заголовок : rus / avo / S. Vizgunov / AC3 / 2ch / 192Kbps
Язык : Russian
Default : Нет
Forced : Нет
Аудио #5
Идентификатор : 6
Формат : FLAC
Формат/Информация : Free Lossless Audio Codec
Идентификатор кодека : A_FLAC
Продолжительность : 1 ч. 39 м.
Вид битрейта : Переменный
Каналы : 2 канала
Частота : 48,0 КГц
Битовая глубина : 24 бит
Заголовок : original eng / flac / 2ch / 847Kbps
Библиотека кодирования : libFLAC 20080709 (UTC 2008-07-09)
Язык : English
Default : Нет
Forced : Нет
Текст #1
Идентификатор : 7
Формат : UTF-8
Идентификатор кодека : S_TEXT/UTF8
Идентификатор кодека/Информация : UTF-8 Plain Text
Заголовок : subtitle rus
Язык : Russian
Default : Нет
Forced : Нет
Текст #2
Идентификатор : 8
Формат : UTF-8
Идентификатор кодека : S_TEXT/UTF8
Идентификатор кодека/Информация : UTF-8 Plain Text
Заголовок : subtitle eng
Язык : English
Default : Нет
Forced : Нет

Сравнение с исходником





Скриншоты


x264 info:

x264 info:
x264 [info]: frame I:918 Avg QP:15.98 size:350825
x264 [info]: frame P:31922 Avg QP:18.28 size:151269
x264 [info]: frame B:110538 Avg QP:19.80 size:102143
x264 [info]: consecutive B-frames: 2.8% 3.3% 10.2% 11.7% 13.7% 46.9% 8.0% 0.5%
x264 [info]: mb I I16..4: 19.8% 54.8% 25.5%
x264 [info]: mb P I16..4: 2.1% 34.3% 2.1% P16..4: 21.4% 27.3% 7.4% 1.4% 0.1% skip: 3.8%
x264 [info]: mb B I16..4: 0.9% 11.3% 0.3% B16..8: 38.1% 20.9% 4.0% direct:16.1% skip: 8.5% L0:43.2% L1:41.7% BI:15.1%
x264 [info]: 8x8 transform intra:88.6% inter:57.4%
x264 [info]: direct mvs spatial:96.9% temporal:3.1%
x264 [info]: coded y,uvDC,uvAC intra: 95.8% 83.7% 59.4% inter: 72.1% 52.3% 9.2%
x264 [info]: i16 v,h,dc,p: 30% 8% 22% 40%
x264 [info]: i8 v,h,dc,ddl,ddr,vr,hd,vl,hu: 8% 7% 10% 10% 13% 12% 13% 12% 14%
x264 [info]: i4 v,h,dc,ddl,ddr,vr,hd,vl,hu: 10% 7% 10% 9% 13% 12% 14% 11% 15%
x264 [info]: i8c dc,h,v,p: 43% 22% 20% 16%
x264 [info]: Weighted P-Frames: Y:4.0% UV:1.4%
x264 [info]: ref P L0: 44.8% 11.2% 28.0% 14.4% 1.5% 0.0%
x264 [info]: ref B L0: 82.5% 14.2% 3.3%
x264 [info]: ref B L1: 89.2% 10.8%
x264 [info]: kb/s:21995.24
Показать сообщения:    

Текущее время: 23-Сен 19:14

Часовой пояс: UTC - 1


Вы не можете начинать темы
Вы не можете отвечать на сообщения
Вы не можете редактировать свои сообщения
Вы не можете удалять свои сообщения
Вы не можете голосовать в опросах
Вы не можете прикреплять файлы к сообщениям
Вы не можете скачивать файлы

!ВНИМАНИЕ!
Сайт не предоставляет электронные версии произведений, а занимается лишь коллекционированием и каталогизацией ссылок, присылаемых и публикуемых на форуме нашими читателями. Если вы являетесь правообладателем какого-либо представленного материала и не желаете, чтобы ссылка на него находилась в нашем каталоге, свяжитесь с нами, и мы незамедлительно удалим ее. Файлы для обмена на трекере предоставлены пользователями сайта, и администрация не несет ответственности за их содержание. Просьба не заливать файлы, защищенные авторскими правами, а также файлы нелегального содержания!