Важное объявление!
У Нас Все раздачи мультитрекерные, при нуле пиров в релизах, можете смело вставать на закачку!
 
Автор Сообщение

HUNTER

Стаж:
4 года 10 месяцев
Сообщений:
65576

Репутация: 101

[+] [-]
Вне форума [Профиль] [ЛС]

Скачи во весь опор! / Let it ride
Страна: США
Студия: Paramount Pictures
Жанр: комедия
Год выпуска: 1989
Продолжительность: 01:30:13
Перевод: Профессиональный (многоголосый закадровый) Paramount channel
Перевод 2: Профессиональный (многоголосый закадровый)
Cубтитры: английские
Оригинальная аудиодорожка: английский
Режиссер: Джо Питка / Joe Pytka
В ролях: Ричард Дрейфусс, Дэвид Джохансен, Тери Гарр, Дженнифер Тилли, Аллен Гарфилд, Эдвард Уолш, Ричард Эдсон, Дэвид Шрэмм, Джон Роселиус, Джозеф Уолш
Описание: Джей Троттер ждал этого дня всю свою жизнь. Наш герой, обычный парень, испытывающий слабость к азартным играм, отправляется на ипподром. И вдруг, о чудо, он обнаруживает, что совсем не может проиграть. Обычное везение, скажете вы? Нет, он просто знает чуть больше остальных… Но старые завсегдатаи ипподрома говорят: «Даже когда ты знаешь наверняка, все равно нельзя быть уверенным до конца».
Кинопоиск
Sample
Тип релиза: WEB-DL 1080p
Контейнер: MKV
Видео: MPEG4 AVC Video, H264, 1912x1072, 23.976 fps, 5143 kbps
Аудио: Russian (AC3, 2 ch, 192 kbps, 16 bits, 48.0 KHz) - Paramount channel
Аудио 2: Russian (AC3, 2 ch, 192 kbps, 16 bits, 48.0 KHz) - MVO
Аудио 3: English (AC3, 6 ch, 384 kbps, 16 bits, 48.0 KHz) - оригинал
Формат субтитров: softsub (SRT)

MediaInfo

General
Unique ID : 178206733126504537615387453757475982539 (0x86115E4CF86FF3BDAB00957F441B0CCB)
Complete name : E:\Let It Ride 1989 WEB-DL 1080p.mkv
Format : Matroska
Format version : Version 4 / Version 2
File size : 3.80 GiB
Duration : 1h 30mn
Overall bit rate : 6 031 Kbps
Encoded date : UTC 2016-03-21 10:19:57
Writing application : mkvmerge v6.1.0 ('Old Devil') built on Mar 2 2013 14:32:37
Writing library : libebml v1.3.0 + libmatroska v1.4.0
Video
ID : 1
Format : AVC
Format/Info : Advanced Video Codec
Format profile : High@L4.0
Format settings, CABAC : Yes
Format settings, ReFrames : 4 frames
Codec ID : V_MPEG4/ISO/AVC
Duration : 1h 30mn
Bit rate : 5 143 Kbps
Width : 1 912 pixels
Height : 1 072 pixels
Display aspect ratio : 16:9
Frame rate mode : Constant
Frame rate : 23.976 fps
Color space : YUV
Chroma subsampling : 4:2:0
Bit depth : 8 bits
Scan type : Progressive
Bits/(Pixel*Frame) : 0.105
Stream size : 3.24 GiB (85%)
Language : English
Default : Yes
Forced : No
Color primaries : BT.709
Transfer characteristics : BT.709
Matrix coefficients : BT.709
Audio #1
ID : 2
Format : AC-3
Format/Info : Audio Coding 3
Mode extension : CM (complete main)
Format settings, Endianness : Big
Codec ID : A_AC3
Duration : 1h 30mn
Bit rate mode : Constant
Bit rate : 192 Kbps
Channel count : 2 channels
Channel positions : Front: L R
Sampling rate : 48.0 KHz
Bit depth : 16 bits
Compression mode : Lossy
Stream size : 124 MiB (3%)
Title : Paramount channel
Language : Russian
Default : Yes
Forced : No
Audio #2
ID : 3
Format : AC-3
Format/Info : Audio Coding 3
Mode extension : CM (complete main)
Format settings, Endianness : Big
Codec ID : A_AC3
Duration : 1h 30mn
Bit rate mode : Constant
Bit rate : 192 Kbps
Channel count : 2 channels
Channel positions : Front: L R
Sampling rate : 48.0 KHz
Bit depth : 16 bits
Compression mode : Lossy
Stream size : 124 MiB (3%)
Title : MVO
Language : Russian
Default : No
Forced : No
Audio #3
ID : 4
Format : AC-3
Format/Info : Audio Coding 3
Mode extension : CM (complete main)
Format settings, Endianness : Big
Codec ID : A_AC3
Duration : 1h 30mn
Bit rate mode : Constant
Bit rate : 384 Kbps
Channel count : 6 channels
Channel positions : Front: L C R, Side: L R, LFE
Sampling rate : 48.0 KHz
Bit depth : 16 bits
Compression mode : Lossy
Stream size : 248 MiB (6%)
Language : English
Default : No
Forced : No
Text
ID : 5
Format : UTF-8
Codec ID : S_TEXT/UTF8
Codec ID/Info : UTF-8 Plain Text
Language : English
Default : No
Forced : No
Menu
00:00:00.000 : en:God Hates This Horse
00:11:08.000 : en:Across the Street At Marty's
00:15:35.000 : en:Photo Finish
00:26:04.000 : en:Walking Tall
00:33:06.000 : en:Faith Healer In the Third
00:36:19.000 : en:The Jockey Club
00:41:46.000 : en:Paging Doctor Trotter
00:48:09.000 : en:Looney's In Trouble
00:51:29.000 : en:"God likes me!"
01:03:06.000 : en:Collecting the Assets
01:08:56.000 : en:Five of Clubs
01:16:14.000 : en:Hot-to-Trot
01:20:10.000 : en:A Very Good Day

Скриншоты


_________________
Показать сообщения:    

Текущее время: Сегодня 09:35

Часовой пояс: GMT



Вы не можете начинать темы
Вы не можете отвечать на сообщения
Вы не можете редактировать свои сообщения
Вы не можете удалять свои сообщения
Вы не можете голосовать в опросах
Вы не можете прикреплять файлы к сообщениям
Вы не можете скачивать файлы