Скауты против зомби / Scouts Guide to the Zombie Apocalypse (Кристофер Лэндон / Christopher Landon) [2015, США, ужасы, боевик, комедия, BDRip 1080p] Dub (Blu-ray CEE) + Original (Eng) + Sub (Rus, Ukr, Eng) :: Ивановский Торрент трекер
Важное объявление!
У Нас Все раздачи мультитрекерные, при нуле пиров в релизах, можете смело вставать на закачку!
Статистика раздачи
Размер:     |    Зарегистрирован:     |    Скачан:     |   
Нет
 
     
 
 
Автор Сообщение

HUNTER

Стаж:
4 года 11 месяцев
Сообщений:
66098

Репутация: 101

[+] [-]
Вне форума [Профиль] [ЛС]

«Предохраняйся»-Скауты против зомби / Scouts Guide to the Zombie Apocalypse
-Год выпуска: 2015
Страна: США
Студия: Paramount Pictures
Жанр: ужасы, боевик, комедия
Продолжительность: 01:32:45
Перевод: Профессиональный (дублированный) Blu-ray CEE / Новый Диск
Cубтитры: русские, украинские, английские
Оригинальная аудиодорожка: английский-Режиссер: Кристофер Лэндон / Christopher Landon-В ролях: Тай Шеридан, Логан Миллер, Джои Морган, Сара Дюмон, Дэвид Кокнер, Холстон Сейдж, Клорис Личмен, Ники Косс, Хирам А. Мюррэй, Лукас Гейдж и другие.-Роли дублировали: Иван Калинин, Антон Колесников, Алексей Костричкин, Екатерина Семенова, Александр Новиков, Алена Созинова, Ольга Зубкова, Татьяна Шитова, Илья Хвостиков, Александр Дасевич, Даниил Эльдаров, Андрей Гриневич, Олег Куценко, Татьяна Весёлкина и другие.-Описание: Встречайте самую нелепую команду героев в мире — трое закадычных друзей-бойскаутов и безбашенная официантка. Именно им выпадает миссия остановить зомбиапокалипсис, который уже погрузил в хаос захолустный сонный городок и грозит охватить всю планету. Последняя надежда человечества — скаутские приемы и умения. К борьбе с зомби будь готов! Всегда готов!-РЕЛИЗ ОТ: -Качество: BDRip 1080p |CRiME|
Формат: MKV
Видео кодек: H.264
Аудио кодек: AC3, DTS
Видео: H.264, 1920x804 (2.40:1), 23.976 fps, ~12.6 Mbps, 0.341 bit/pixel
Аудио:
  • русская |Blu-ray CEE|: AC3, 48 kHz, 6 ch, 640 kbps
  • английская |Оригинал|: DTS, 48 kHz, 6 ch, 1509 kbps
-Сэмпл \ Кинопоиск-

Скриншоты

Media Info

Код:
General
Unique ID                      : 198775631342360617873239174173901558884 (0x958ACB47A034A9A2BD1E21C2567D9464)
Complete name                  : E:\Video\HD\Movies (HD)\Scouts Guide to the Zombie Apocalypse (2015) (BDRip 1080p).mkv
Format                         : Matroska
Format version                 : Version 4 / Version 2
File size                      : 9.75 GiB
Duration                       : 1h 32mn
Overall bit rate               : 15.1 Mbps
Encoded date                   : UTC 2016-09-25 07:18:22
Writing application            : mkvmerge v8.8.0 ('Wind at my back') 32bit
Writing library                : libebml v1.3.3 + libmatroska v1.4.4
DURATION                       : 01:26:22.552000000
NUMBER_OF_FRAMES               : 1154
NUMBER_OF_BYTES                : 32993
_STATISTICS_WRITING_APP        : mkvmerge v8.8.0 ('Wind at my back') 32bit
_STATISTICS_WRITING_DATE_UTC   : 2016-09-25 07:18:22
_STATISTICS_TAGS               : BPS DURATION NUMBER_OF_FRAMES NUMBER_OF_BYTES
Video
ID                             : 1
Format                         : AVC
Format/Info                    : Advanced Video Codec
Format profile                 : High@L4.1
Format settings, CABAC         : Yes
Format settings, ReFrames      : 5 frames
Codec ID                       : V_MPEG4/ISO/AVC
Duration                       : 1h 32mn
Bit rate                       : 12.6 Mbps
Width                          : 1 920 pixels
Height                         : 804 pixels
Display aspect ratio           : 2.40:1
Frame rate mode                : Constant
Frame rate                     : 23.976 fps
Color space                    : YUV
Chroma subsampling             : 4:2:0
Bit depth                      : 8 bits
Scan type                      : Progressive
Bits/(Pixel*Frame)             : 0.341
Stream size                    : 8.17 GiB (84%)
Writing library                : x264 core 148 r2638 7599210
Encoding settings              : cabac=1 / ref=5 / deblock=1:-3:-3 / analyse=0x3:0x133 / me=umh / subme=10 / psy=1 / psy_rd=1.02:0.00 / mixed_ref=1 / me_range=32 / chroma_me=1 / trellis=2 / 8x8dct=1 / cqm=0 / deadzone=21,11 / fast_pskip=0 / chroma_qp_offset=-2 / threads=6 / lookahead_threads=1 / sliced_threads=0 / nr=0 / decimate=0 / interlaced=0 / bluray_compat=0 / constrained_intra=0 / bframes=9 / b_pyramid=2 / b_adapt=2 / b_bias=0 / direct=3 / weightb=1 / open_gop=0 / weightp=2 / keyint=250 / keyint_min=24 / scenecut=40 / intra_refresh=0 / rc_lookahead=60 / rc=crf / mbtree=0 / crf=19.4 / qcomp=0.65 / qpmin=0 / qpmax=69 / qpstep=4 / vbv_maxrate=62500 / vbv_bufsize=78125 / crf_max=0.0 / nal_hrd=none / filler=0 / ip_ratio=1.23 / pb_ratio=1.13 / aq=3:0.70
Language                       : English
Default                        : Yes
Forced                         : No
DURATION                       : 01:32:45.018000000
NUMBER_OF_FRAMES               : 133427
NUMBER_OF_BYTES                : 8974606584
_STATISTICS_WRITING_APP        : mkvmerge v8.8.0 ('Wind at my back') 32bit
_STATISTICS_WRITING_DATE_UTC   : 2016-09-25 07:18:22
_STATISTICS_TAGS               : BPS DURATION NUMBER_OF_FRAMES NUMBER_OF_BYTES
Audio #1
ID                             : 2
Format                         : AC-3
Format/Info                    : Audio Coding 3
Mode extension                 : CM (complete main)
Format settings, Endianness    : Big
Codec ID                       : A_AC3
Duration                       : 1h 32mn
Bit rate mode                  : Constant
Bit rate                       : 640 Kbps
Channel(s)                     : 6 channels
Channel positions              : Front: L C R, Side: L R, LFE
Sampling rate                  : 48.0 KHz
Bit depth                      : 16 bits
Compression mode               : Lossy
Stream size                    : 425 MiB (4%)
Title                          : DUB (Blu-ray CEE / Новый Диск)
Language                       : Russian
Default                        : Yes
Forced                         : No
Audio #2
ID                             : 3
Format                         : DTS
Format/Info                    : Digital Theater Systems
Mode                           : 16
Format settings, Endianness    : Big
Codec ID                       : A_DTS
Duration                       : 1h 32mn
Bit rate mode                  : Constant
Bit rate                       : 1 509 Kbps
Channel(s)                     : 6 channels
Channel positions              : Front: L C R, Side: L R, LFE
Sampling rate                  : 48.0 KHz
Bit depth                      : 24 bits
Compression mode               : Lossy
Stream size                    : 1 001 MiB (10%)
Title                          : Original
Language                       : English
Default                        : No
Forced                         : No
Text #1
ID                             : 4
Format                         : UTF-8
Codec ID                       : S_TEXT/UTF8
Codec ID/Info                  : UTF-8 Plain Text
Title                          : Blu-ray CEE
Language                       : Russian
Default                        : No
Forced                         : No
Text #2
ID                             : 5
Format                         : UTF-8
Codec ID                       : S_TEXT/UTF8
Codec ID/Info                  : UTF-8 Plain Text
Title                          : Blu-ray CEE
Language                       : Ukrainian
Default                        : No
Forced                         : No
Text #3
ID                             : 6
Format                         : UTF-8
Codec ID                       : S_TEXT/UTF8
Codec ID/Info                  : UTF-8 Plain Text
Title                          : Original
Language                       : English
Default                        : No
Forced                         : No
Text #4
ID                             : 7
Format                         : UTF-8
Codec ID                       : S_TEXT/UTF8
Codec ID/Info                  : UTF-8 Plain Text
Title                          : SDH
Language                       : English
Default                        : No
Forced                         : No
Menu
00:00:00.000                   : en:00:00:00.000
00:06:45.155                   : en:00:06:45.155
00:14:53.768                   : en:00:14:53.768
00:21:31.165                   : en:00:21:31.165
00:27:01.954                   : en:00:27:01.954
00:31:30.597                   : en:00:31:30.597
00:39:25.238                   : en:00:39:25.238
00:45:57.838                   : en:00:45:57.838
00:51:13.988                   : en:00:51:13.988
00:57:32.199                   : en:00:57:32.199
01:06:08.131                   : en:01:06:08.131
01:12:08.950                   : en:01:12:08.950
01:20:00.004                   : en:01:20:00.004
01:26:04.534                   : en:01:26:04.534
-

_________________
Показать сообщения:    

Текущее время: Сегодня 05:39

Часовой пояс: GMT



Вы не можете начинать темы
Вы не можете отвечать на сообщения
Вы не можете редактировать свои сообщения
Вы не можете удалять свои сообщения
Вы не можете голосовать в опросах
Вы не можете прикреплять файлы к сообщениям
Вы не можете скачивать файлы