Важное объявление!
У Нас Все раздачи мультитрекерные, при нуле пиров в релизах, можете смело вставать на закачку!
 
Автор Сообщение

HUNTER

Стаж:
4 года 5 месяцев
Сообщений:
60874

Репутация: 101

[+] [-]
Вне форума [Профиль] [ЛС]

Сказки из будущего
Год выпуска: 2008-2010
Страна: Россия, Израиль
Производство: Ari Films
Язык: русский
Жанр: мультфильмы
Продолжительность: 01:01:50
Роли озвучивают: Светлана Демидова, Владимир Гру
Описание: Сборник мультфильмов рассказывает детям о дружбе, преданности, уважении, любви и о многом-многом другом.
Красивые мультипликационные истории не дадут детишкам скучать, пока они учатся быть добрыми. Познавательные и обучающие сюжеты.
Качество: WEB-DL Rip 720p
Формат: MP4
Видео кодек: MPEG-4 AVC (H.264)
Аудио кодек: AAC
Видео: 1280x720, 25,000 fps, ~ 1500 Kbps, ~ 0.050 bit/pixel
Аудио: 44,1 kHz, 2 (L,R) ch, ~ 150 kb/s

Скриншоты

MediaInfo

Общее
Полное имя : Skazki_iz_budushhego\Волшебные очки.mp4
Формат : MPEG-4
Профиль формата : Base Media / Version 2
Идентификатор кодека : mp42
Размер файла : 139 Мбайт
Продолжительность : 11 м.
Режим общего битрейта : Переменный
Общий поток : 1700 Кбит/сек
Дата кодирования : UTC 2012-05-08 06:38:33
Дата пометки : UTC 2012-05-08 06:38:33
gsst : 0
gstd : 687146
gssd : B4A7DDA05MH1341202992429047
gshh : o-o.preferred.fra07t11.v5.cache1.c.youtube.com
Видео
Идентификатор : 1
Формат : AVC
Формат/Информация : Advanced Video Codec
Профиль формата : [url=mailto:High@L3.1]High@L3.1[/url]
Параметр CABAC формата : Да
Параметр ReFrames формата : 1 кадр
Идентификатор кодека : avc1
Идентификатор кодека/Информация : Advanced Video Coding
Продолжительность : 11 м.
Битрейт : 1546 Кбит/сек
Максимальный битрейт : 5766 Кбит/сек
Ширина : 1280 пикселей
Высота : 720 пикселей
Соотношение сторон : 16:9
Режим частоты кадров : Постоянный
Частота кадров : 25,000 кадров/сек
Цветовое пространство : YUV
Субдискретизация насыщенности : 4:2:0
Битовая глубина : 8 бит
Тип развёртки : Прогрессивная
Бит/(Пиксели*Кадры) : 0.067
Размер потока : 127 Мбайт (91%)
Дата пометки : UTC 2012-05-08 06:38:34
Аудио
Идентификатор : 2
Формат : AAC
Формат/Информация : Advanced Audio Codec
Профиль формата : LC
Идентификатор кодека : 40
Продолжительность : 11 м.
Вид битрейта : Переменный
Битрейт : 152 Кбит/сек
Максимальный битрейт : 198 Кбит/сек
Каналы : 2 канала
Расположение каналов : Front: L R
Частота : 44,1 КГц
Метод сжатия : С потерями
Размер потока : 12,4 Мбайт (9%)
Заголовок : IsoMedia File Produced by Google, 5-11-2011
Дата кодирования : UTC 2012-05-08 06:38:34
Дата пометки : UTC 2012-05-08 06:38:34

Список мультфильмов

01. Волшебные очки (00:11:26)
02. Город роботов (00:08:30)
03. Как творить чудеса (00:09:47)
04. Копия (00:04:31)
05. Невидимка (00:06:11)
06. Отличник (00:08:00)
07. Принцесса Мая (00:06:44)
08. Чтобы жить, не тужить (00:06:34)

_________________
Показать сообщения:    

Текущее время: Сегодня 22:49

Часовой пояс: GMT



Вы не можете начинать темы
Вы не можете отвечать на сообщения
Вы не можете редактировать свои сообщения
Вы не можете удалять свои сообщения
Вы не можете голосовать в опросах
Вы не можете прикреплять файлы к сообщениям
Вы не можете скачивать файлы
Наши партнеры: интернет магазин Ивановского трикотажа textilla.ru