Ивановский Торрент трекер
Яндекс.Погода
 

[Цитировать]
димитри37

Сказка странствий
Жанр: философская притча, аллегория, драма
Год выпуска: 1982
Продолжительность: 01:39:22
Режиссёр: Александр Митта
В ролях: Андрей Миронов, Татьяна Аксюта (озвучание - Марина Неёлова), Лев Дуров, Ксюша Пирятинская, Балтыбай Сейтмамутов, Валерий Сторожик, Кармен Галин (озвучание - Екатерина Васильева), Владимир Басов, Вениамин Смехов, Эвжен Егоров, Жан Лорин Флореску (озвучание - Виктор Сергачёв), Владимир Басов, Мари Росулкова, Зденек Ржегорж, Вацлав Котва, Петр Ханус, Владимир Долинский, Владимир Кремена, Александр Пятков, Валерий Симунин, Олег Штода, Карел Белоградски, Роджин Константин, Октавиан Котеску (озвучание - Всеволод Ларионов), Овидий Юлий Молдован, Александр Титов, Карел Габл, Сергей Самойлов, Дмитрий Титов
Описание: В маленьком княжестве жили-были двое бедных сирот. Маленький Май обладал необыкновенным даром находить спрятанное золото, но это доставляло ему сильные физические страдания. Однажды в рождественскую ночь злой и жадный Горгон украл мальчика. И тогда Марта отправилась на поиски брата. В этом нелегком пути ее сопровождал Орландо - врач, поэт, философ и путешественник. Через много лет Марта находит брата, но, оказывается, найти - еще не значит спасти...
Доп. информация:
Сценарий: Александр Митта, Юлий Дунский, Валерий Фрид
Оператор: Валерий Шувалов
Художник: Теодор Тэжик
Композитор: Альфред Шнитке
Стихи: Юлий Ким (Михайлов)
Ограничения на просмотр: для любой зрительской аудитории

Качество видео: DVDRip
Формат видео: AVI
Видео: 688x512 (1.34:1), 25 fps, XviD 64, 1714 kbps avg, 0.19 bit/pixel
Аудио: 48 kHz, AC3 Dolby Digital, 3/2 (L,C,R,l,r) + LFE ch, 384 kbps

Афиша

Об исходнике и кропе

Исходником для данного рипа послужило немецкое издание фирмы "Eurovideo Bildprogramm GmbH". Черная рамка в нём плавающая. Полный кроп значительно удаляет и полезную площадь кадра. Поэтому рамка частично сохранена.

MediaInfo

Полное имя : Skazka stranstvy.Germany.avi
Формат : AVI
Формат/Информация : Audio Video Interleave
Размер файла : 1,46 Гбайт
Продолжительность : 1 ч. 39 м.
Общий поток : 2109 Кбит/сек
Программа кодирования : VirtualDubMod 1.5.10.3 (build 2550/release)
Библиотека кодирования : VirtualDubMod build 2550/release
Видео
Идентификатор : 0
Формат : MPEG-4 Visual
Профиль формата : Advanced Simple@L5
Параметр BVOP формата : 2
Параметр QPel формата : Нет
Параметр GMC формата : Без точки перехода
Параметр матрицы формата : Выборочная
Идентификатор кодека : XVID
Идентификатор кодека/Подсказка : XviD
Продолжительность : 1 ч. 39 м.
Битрейт : 1715 Кбит/сек
Ширина : 688 пикселей
Высота : 512 пикселей
Соотношение сторон : 4:3
Частота кадров : 25,000 кадров/сек
Цветовое пространство : YUV
Субдискретизация насыщенности : 4:2:0
Битовая глубина : 8 бит
Тип развёртки : Прогрессивная
Метод сжатия : С потерями
Бит/(Пиксели*Кадры) : 0.195
Размер потока : 1,19 Гбайт (81%)
Библиотека кодирования : XviD 64
Аудио
Идентификатор : 1
Формат : AC-3
Формат/Информация : Audio Coding 3
Расширение режима : CM (complete main)
Параметр Endianness формата : Big
Идентификатор кодека : 2000
Продолжительность : 1 ч. 39 м.
Вид битрейта : Постоянный
Битрейт : 384 Кбит/сек
Каналы : 6 каналов
Расположение каналов : Front: L C R, Side: L R, LFE
Частота : 48,0 КГц
Битовая глубина : 16 бит
Метод сжатия : С потерями
Размер потока : 273 Мбайт (18%)
Выравнивание : Разделение по промежуткам
Продолжительность промежутка : 40 мс. (1,00 видеокадр)
Время предзагрузки промежутка : 500 мс.

Скриншоты

Сравнение

http://rutracker.org/forum/viewtopic.php?t=208915 - с DVDRip (исходник - "Крупный план")
http://screenshotcomparison.com/comparison/8546
В издании "Крупного плана", по сравнению с немецким, чрезмерно повышена контрастность, поэтому немецкое издание, послужившее исходником для данного рипа, отличается большей детализацией в темных сценах, однако, имеет меньшее наполнение кадра и относительно блёклую картинку в светлых сценах. В общем, "... если бы губы Никанора Ивановича да приставить к носу Ивана Кузьмича..."
Показать сообщения:    

Текущее время: 22-Сен 17:59

Часовой пояс: UTC - 1


Вы не можете начинать темы
Вы не можете отвечать на сообщения
Вы не можете редактировать свои сообщения
Вы не можете удалять свои сообщения
Вы не можете голосовать в опросах
Вы не можете прикреплять файлы к сообщениям
Вы не можете скачивать файлы

!ВНИМАНИЕ!
Сайт не предоставляет электронные версии произведений, а занимается лишь коллекционированием и каталогизацией ссылок, присылаемых и публикуемых на форуме нашими читателями. Если вы являетесь правообладателем какого-либо представленного материала и не желаете, чтобы ссылка на него находилась в нашем каталоге, свяжитесь с нами, и мы незамедлительно удалим ее. Файлы для обмена на трекере предоставлены пользователями сайта, и администрация не несет ответственности за их содержание. Просьба не заливать файлы, защищенные авторскими правами, а также файлы нелегального содержания!