Сказка о Хвосте Феи / Fairy Tail / Хвост Феи / Фейри Тейл [TV2] [1 из >13 эп.] [Без хардсаба] [JAP, RUS(ext), SUB] [2014 г., приключения, комедия, фэнтези, сёнэн, HDTVRip] [720p] :: Ивановский Торрент трекер
Важное объявление!
У Нас Все раздачи мультитрекерные, при нуле пиров в релизах, можете смело вставать на закачку!
 
Автор Сообщение

HUNTER

Стаж:
4 года 11 месяцев
Сообщений:
66051

Репутация: 101

[+] [-]
Вне форума [Профиль] [ЛС]

Сказка о Хвосте Феи
-Страна: Япония
Год выпуска: 2014 г.
Жанр: приключения, комедия, фэнтези, сёнэн
Тип: TV
Продолжительность: >13 эп., 25 мин.
Режиссер: Исихира Синдзи
Студия: A-1 Pictures Inc., Bridge-Перевод:
Advokat, Bel-chan, Blazing Wizard, Jenia aka Zub, sild, Мария Гостюхина-World-art || ANN || [url=http://myanimelist.net/anime/22043/Fairy_Tail_(2014)]MAL[/url]-Описание: В королевстве Фиоре признанные маги объединены в множество гильдий, но для молодой «небесной волшебницы» Люси Хартфилии существует только одна – легендарная Фейри Тейл, куда она стремится попасть с начала сознательной жизни. Эта гильдия славится как силой и способностями своих магов, так и их экстравагантностью и бесконечным соперничеством между собой. В итоге магическое лекарство иногда оказывается хуже болезни, но такова жизнь! Вот только все знают, что Фейри Тейл – гильдия закрытая и малочисленная, для вступления нужно поручительство кого-то из членов, так что Люси, дочь лорда, оставляет семью и пускается в долгое путешествие.
Многое пришлось вынести девушке в своих поисках, но в портовом городе Хальцион она встретила рыжего парня по имени Нацу Драгнил. Как выяснилось, новый знакомый – полноправный маг Фэйри Тейл по прозванию Саламандра, и даже его летающий кот Хэппи – тоже член Гильдии! Правда, после теплого знакомства героев в стиле Лины Инверс город оказался слегка разрушен, но главное все же случилось - Нацу дал Люси рекомендацию. Вот теперь начинаются настоящие магические приключения!
© Hollow, World Art-Качество: HDTVRip
Тип релиза: Без хардсаба
Формат видео: MP4
Наличие линковки: Нет
Релиз/Автор рипа: Zero-Raws
Видео: AVC, 1280x720, 1781kbps, 23,976fps, 8bits
Аудио JAP: AAC, 192kbps, 48.0Hz, 2ch
Аудио RUS: AAC, 190kbps, 48.0Hz, 2ch (внешним файлом)
Аудио RUS2: AAC, 126kbps, 44.1Hz, 2ch (внешним файлом)
Субтитры RUS: ass, внешние;-

Список озвучек

трёхголосая Lupin & Nuriko & Metacarmex - (Anilibria) SAMPLE
многоголосая Полина Джелиева, Арина Каленская, Олеся Белая, Сергей Шишканаков, Николай Никифоров, Андрей Губанов - (Infinity Studio) SAMPLE

Подробные тех. данные

ОбщееФормат : MPEG-4Профиль формата : Base MediaИдентификатор кодека : isomРазмер файла : 349 МбайтПродолжительность : 24 м.Режим общего битрейта : ПеременныйОбщий поток : 1974 Кбит/секДата кодирования : UTC 2014-04-05 03:41:34Дата пометки : UTC 2014-04-05 03:41:34
ВидеоИдентификатор : 1Формат : AVCФормат/Информация : Advanced Video CodecПрофиль формата : High@L3.1Параметр CABAC формата : ДаПараметр ReFrames формата : 4 кадраИдентификатор кодека : avc1Идентификатор кодека/Информация : Advanced Video CodingПродолжительность : 24 м.Битрейт : 1781 Кбит/секМаксимальный битрейт : 11,0 Мбит/секШирина : 1280 пикселейВысота : 720 пикселейСоотношение сторон : 16:9Режим частоты кадров : ПостоянныйЧастота кадров : 23,976 кадра/секЦветовое пространство : YUVСубдискретизация насыщенности : 4:2:0Битовая глубина : 8 битТип развёртки : ПрогрессивнаяБит/(Пиксели*Кадры) : 0.081Размер потока : 315 Мбайт (90%)Библиотека кодирования : x264 core 133 r2334 a3ac64bНастройки программы : cabac=1 / ref=3 / deblock=1:0:0 / analyse=0x3:0x113 / me=hex / subme=7 / psy=1 / psy_rd=1.00:0.00 / mixed_ref=1 / me_range=16 / chroma_me=1 / trellis=1 / 8x8dct=1 / cqm=0 / deadzone=21,11 / fast_pskip=1 / chroma_qp_offset=-2 / threads=12 / lookahead_threads=2 / sliced_threads=0 / nr=0 / decimate=1 / interlaced=0 / bluray_compat=0 / constrained_intra=0 / bframes=3 / b_pyramid=2 / b_adapt=1 / b_bias=0 / direct=1 / weightb=1 / open_gop=0 / weightp=2 / keyint=250 / keyint_min=23 / scenecut=40 / intra_refresh=0 / rc_lookahead=40 / rc=crf / mbtree=1 / crf=19.5 / qcomp=0.60 / qpmin=0 / qpmax=69 / qpstep=4 / ip_ratio=1.40 / aq=1:1.00Дата кодирования : UTC 2014-04-05 03:21:23Дата пометки : UTC 2014-04-05 03:41:35
АудиоИдентификатор : 2Формат : AACФормат/Информация : Advanced Audio CodecПрофиль формата : LCИдентификатор кодека : 40Продолжительность : 24 м.Вид битрейта : ПеременныйБитрейт : 192 Кбит/секКаналы : 2 каналаРасположение каналов : Front: L RЧастота : 48,0 КГцМетод сжатия : С потерямиРазмер потока : 33,4 Мбайт (10%)Заголовок : aac#trackID=1:lang=Japanese@GPAC0.5.1-DEV-rev4708Язык : JapaneseДата кодирования : UTC 2014-04-05 03:41:34Дата пометки : UTC 2014-04-05 03:41:35

Список эпизодов

Серия 1: «The Dragon King»

Отличия

Killer Bee - там 1080р, тут - 720р; наличие озвучки
villain#34 - наличие озвучки
bubuzavr - альтернативная озвучка
funny_man2013 - там 1080р, тут 720р; альтернативная озвучка
funny_man2013 - альтернативная озвучка

Скриншоты






_________________
Показать сообщения:    

Текущее время: Сегодня 02:06

Часовой пояс: GMT



Вы не можете начинать темы
Вы не можете отвечать на сообщения
Вы не можете редактировать свои сообщения
Вы не можете удалять свои сообщения
Вы не можете голосовать в опросах
Вы не можете прикреплять файлы к сообщениям
Вы не можете скачивать файлы