Ивановский Торрент трекер
Яндекс.Погода
 

[Цитировать]
димитри37

Си-бемоль-кокосWhy Stop Now
«A funny thing happened on the way to rehab.»
Страна: США
Жанр: драма, комедия
Год выпуска: 2012
Продолжительность: 01:27:58
Перевод: Одноголосый закадровый [Kerob]
Субтитры: нет
Режиссер: Фил Дорлинг / Phil Dorling, Рон Нисуонер / Ron Nyswaner
В ролях: Джесси Айзенберг, Мелисса Лео, Трэйси Морган, Эмма Рэйн Лайл, Сара Рамос, Исайя Уитлок мл., Стефани Марч, Пол Кэлдерон, Нил Хафф, Джейс Барток, Харпер Дилл, Таня Райт
Описание: Элай Смит - гениальный пианист. Но вместо вступительных экзаменов в престижное музыкальное училище его беспокоят совсем другие проблемы - ему нужно устроить маму в клинику для наркозависимых. Врач объясняет матери Элая, что самый быстрый и надежный способ оказаться в лечебном заведении - явиться сюда «под кайфом». Элай отправляется с мамой на поиски дозы, которую берутся раздобыть два чернокожих брата со связями в испанском ресторане...
Хозяин ресторанчика неожиданно проявляет живейший интерес к маме Элая в то время как самому парню надо во что бы то ни стало успеть на последний тур экзамена... Так начинается безбашенное приключение в поисках никому ненужного кайфа...


MPAA: R - Лицам до 17 лет обязательно присутствие взрослого
Сценарий: Фил Дорлинг / Phil Dorling, Рон Нисуонер / Ron Nyswaner
Продюсер: Неда Армиан / Neda Armian, Брайс Даль Фарра / Brice Dal Farra, Клод Даль Фарра / Claude Dal Farra, Лорен Мунш / Lauren Munsch, Рон Нисуонер / Ron Nyswaner
Оператор: Бен Катчинс / Ben Kutchins
Композитор: Спенсер Дэвид Хатчингс / Spencer David Hutchings
Сборы в США: $2 432
Мировая премьера: 27 января 2012
Качество: HDRip
Контейнер: AVI
Видео: XviD, 720x304 (2.35:1), 1768 kbps, 23,976 fps, 0,337 bpp
Аудио: AC3 / 5.1 / 48 kHz / 448 kbps / 16 bit

Media Info

General
Complete name : G:\Why.Stop.Now.2012.L1.HDRip_1400MB.avi
Format : AVI
Format/Info : Audio Video Interleave
File size : 1.37 GiB
Duration : 1h 27mn
Overall bit rate : 2 226 Kbps
Writing application : VirtualDubMod 1.5.10.2 (build 2540/release)
Writing library : VirtualDubMod build 2540/release
Video
ID : 0
Format : MPEG-4 Visual
Format profile : Advanced Simple@L5
Format settings, BVOP : 1
Format settings, QPel : No
Format settings, GMC : No warppoints
Format settings, Matrix : Default (H.263)
Muxing mode : Packed bitstream
Codec ID : XVID
Codec ID/Hint : XviD
Duration : 1h 27mn
Bit rate : 1 768 Kbps
Width : 720 pixels
Height : 304 pixels
Display aspect ratio : 2.35:1
Frame rate : 23.976 fps
Color space : YUV
Chroma subsampling : 4:2:0
Bit depth : 8 bits
Scan type : Progressive
Compression mode : Lossy
Bits/(Pixel*Frame) : 0.337
Stream size : 1.09 GiB (79%)
Writing library : XviD 1.2.1 (UTC 2008-12-04)
Audio
ID : 1
Format : AC-3
Format/Info : Audio Coding 3
Mode extension : CM (complete main)
Codec ID : 2000
Duration : 1h 27mn
Bit rate mode : Constant
Bit rate : 448 Kbps
Channel(s) : 6 channels
Channel positions : Front: L C R, Side: L R, LFE
Sampling rate : 48.0 KHz
Bit depth : 16 bits
Compression mode : Lossy
Stream size : 282 MiB (20%)
Alignment : Split accross interleaves
Interleave, duration : 42 ms (1.00 video frame)
Interleave, preload duration : 500 ms

Скриншот с названием фильма

Скриншоты

-Источник: http://rutracker.org/forum/viewtopic.php?t=4469194
0 человек читают эту тему: 0 пользователей, 0 скрытых пользователей, 0 гостей

Показать сообщения:    

Текущее время: 24-Авг 09:42

Часовой пояс: UTC - 1


Вы не можете начинать темы
Вы не можете отвечать на сообщения
Вы не можете редактировать свои сообщения
Вы не можете удалять свои сообщения
Вы не можете голосовать в опросах
Вы не можете прикреплять файлы к сообщениям
Вы не можете скачивать файлы

!ВНИМАНИЕ!
Сайт не предоставляет электронные версии произведений, а занимается лишь коллекционированием и каталогизацией ссылок, присылаемых и публикуемых на форуме нашими читателями. Если вы являетесь правообладателем какого-либо представленного материала и не желаете, чтобы ссылка на него находилась в нашем каталоге, свяжитесь с нами, и мы незамедлительно удалим ее. Файлы для обмена на трекере предоставлены пользователями сайта, и администрация не несет ответственности за их содержание. Просьба не заливать файлы, защищенные авторскими правами, а также файлы нелегального содержания!