Ивановский Торрент трекер
Яндекс.Погода
 

[Цитировать]
HUNTER

Сирота-убийца / The Orphan Killer
Страна: США
Студия: Full Fathom 5
Жанр: ужасы, триллер, gore
Год выпуска: 2011
Продолжительность: 01:22:29
Перевод: Одноголосый закадровый magnumst
Cубтитры: испанские, французские, немецкие, итальянские, японские.
Оригинальная аудиодорожка: английский
Режиссер: Матиас Фарнсворт / Matt Farnsworth
В ролях: Диана Фостер, Джон Сэвидж, Дэвид Бакус, Карен Янг, Джеймс Маккеффри, Мэтт Фарнсуорт
Описание: Маркус Миллер вместе со своей сестрой Одри в детстве стали свидетелями убийства своих родителей. Дети оказались в сиротском приюте, откуда вышли уже взрослыми молодыми людьми. Но психика Маркуса оказалась более чувствительной, и парню так и не удалось забыть детский кошмар. Он пускается в кровавую резню, в то время, как знающая о проблемах брата Одри пытается его остановить…
Дешевый любительский фильм. Второй опыт совмещения режиссуры и актерства у Мэтта Фарнсворта после картины «Айова» (2005).
Доп. информация: Русская звуковая дорожка взята с этой раздачи http://rutracker.org/forum/viewtopic.php?t=3990873 автору большое спасибо
При пересборе двд были использованы программы:
PgcDemux - разделение компонентов диска на файлы
Muxman - мультиплексирование и авторинг DVD
VobBlanker - реавторинг DVD

Скрин завершения проекта

Сэмпл: http://sendfile.su/1095144
Тип релиза: DVD9 (Custom)
Контейнер: DVD-Video
Видео: NTSC 16:9 (720x480) VBR Auto Pan&Scan
Аудио: Russian (Dolby AC3, 448 Кбит/сек, 5 ch)
Аудио 2: English (Dolby AC3, 192 Кбит/сек, 2 ch)
Формат субтитров: softsub (SRT)

DVDInfo

Size: 5.18 Gb ( 5 433 956 KBytes ) - DVD-9
Enabled regions: 1, 2, 3, 4, 5, 6, 7, 8
VTS_01 :
Play Length: 01:22:29
Video: NTSC 16:9 (720x480) VBR, Auto Pan&Scan
Audio:
Russian (Dolby AC3, 5 ch)
English (Dolby AC3, 2 ch)
Subtitles:
Espanol
Francais
Deutsch
Italiano
Japanese
Menu Video:
NTSC 16:9 (720x480) VBR
Auto Pan&Scan
Menu English Language Unit :
Root Menu

MediaInfo

Общее
Полное имя : M:\The Orphan Killer_2011\VIDEO_TS\VTS_01_1.VOB
Формат : MPEG-PS
Размер файла : 1024 Мбайт
Продолжительность : 17 м.
Режим общего битрейта : Переменный
Общий поток : 8277 Кбит/сек
Видео
Идентификатор : 224 (0xE0)
Формат : MPEG Video
Версия формата : Version 2
Профиль формата : Main@Main
Параметр BVOP формата : Да
Параметр матрицы формата : Выборочная
Продолжительность : 17 м.
Вид битрейта : Переменный
Битрейт : 7472 Кбит/сек
Максимальный битрейт : 9800 Кбит/сек
Ширина : 720 пикселей
Высота : 480 пикселей
Соотношение сторон : 16:9
Частота кадров : 23,976 кадра/сек
Стандарт вещания : NTSC
Цветовое пространство : YUV
Субдискретизация насыщенности : 4:2:0
Битовая глубина : 8 бит
Тип развёртки : Прогрессивная
Порядок развёртки : 2:3 Pulldown
Метод сжатия : С потерями
Бит/(Пиксели*Кадры) : 0.902
Размер потока : 924 Мбайт (90%)
Аудио #1
Идентификатор : 189 (0xBD)-128 (0x80)
Формат : AC-3
Формат/Информация : Audio Coding 3
Расширение режима : CM (complete main)
Параметр Endianness формата : Big
Режим смешивания : DVD-Video
Продолжительность : 17 м.
Вид битрейта : Постоянный
Битрейт : 448 Кбит/сек
Каналы : 6 каналов
Расположение каналов : Front: L C R, Side: L R, LFE
Частота : 44,1 КГц
Битовая глубина : 16 бит
Метод сжатия : С потерями
Размер потока : 55,4 Мбайт (5%)
Аудио #2
Идентификатор : 189 (0xBD)-129 (0x81)
Формат : AC-3
Формат/Информация : Audio Coding 3
Расширение режима : CM (complete main)
Параметр Endianness формата : Big
Режим смешивания : DVD-Video
Продолжительность : 17 м.
Вид битрейта : Постоянный
Битрейт : 192 Кбит/сек
Каналы : 2 канала
Расположение каналов : Front: L R
Частота : 48,0 КГц
Битовая глубина : 16 бит
Метод сжатия : С потерями
Размер потока : 23,8 Мбайт (2%)
Меню

Постеры, обложки и блин

Скриншоты меню



Показать сообщения:    

Текущее время: 17-Дек 15:57

Часовой пояс: UTC ± 0


Вы не можете начинать темы
Вы не можете отвечать на сообщения
Вы не можете редактировать свои сообщения
Вы не можете удалять свои сообщения
Вы не можете голосовать в опросах
Вы не можете прикреплять файлы к сообщениям
Вы не можете скачивать файлы

!ВНИМАНИЕ!
Сайт не предоставляет электронные версии произведений, а занимается лишь коллекционированием и каталогизацией ссылок, присылаемых и публикуемых на форуме нашими читателями. Если вы являетесь правообладателем какого-либо представленного материала и не желаете, чтобы ссылка на него находилась в нашем каталоге, свяжитесь с нами, и мы незамедлительно удалим ее. Файлы для обмена на трекере предоставлены пользователями сайта, и администрация не несет ответственности за их содержание. Просьба не заливать файлы, защищенные авторскими правами, а также файлы нелегального содержания!