Важное объявление!
У Нас Все раздачи мультитрекерные, при нуле пиров в релизах, можете смело вставать на закачку!
 
Автор Сообщение

HUNTER

Стаж:
4 года 10 месяцев
Сообщений:
65542

Репутация: 101

[+] [-]
Вне форума [Профиль] [ЛС]

Синяя птица-
Страна: СССР
Жанр: анимация, притча, экранизация
Продолжительность: 00:49:23
Год выпуска: 1970
Перевод: Не требуется
Русские субтитры: нет
Режиссёр: Василий Ливанов
Роли озвучивали: Рина Зелёная (Бабушка), Людмила Гнилова (Девочка), Владимир Кенигсон (Богач), Лия Ахеджакова (Мальчик), Юрий Яковлев (Дедушка), Татьяна Доронина (Фея), Василий Ливанов (Пёс, Шахтёр)
Описание: Композитор: Геннадий Гладков. Оператор: Михаил Друян. Современная сатирическая сказка по мотивам пьесы Мориса Метерлинка (1905). Часть эпизодов выполнена в технике фотоколлажа режиссёром и художником Наталией Котовщиковой (Головановой). Вторая режиссерская анимационная работа известного актера Василия Ливанова (исполнителя роли Шерлока Холмса в одноименном телесериале). На его режиссерском счету мультфильмы: "Самый, самый, самый, самый" (1966), "Фаэтон — сын Солнца" (1972), "По следам бременских музыкантов" (1973).
Двое детей - брат с сестрой Тильтиль и Митиль (в фильме Мальчик и Девочка) по воле Феи отправляются на поиски Птицы Счастья - Синей Птицы, которая позволит людям постичь души Вещей, Животных и Стихий. Птица была похищена Чёрным Котом, прислужником Ночи, желающей продать её Богачу, который, в свою очередь, хочет скормить её Войне... В Стране Воспоминаний оживают давно умершие Бабушка и Дедушка. Детей сопровождают извечные помощники Человека: Вода, Огонь и Хлеб. Вместе они предотвращают коварные замыслы Ночи и Богача и отпускают Синюю Птицу на волю. "Синяя Птица не может принадлежать кому-нибудь одному, она принадлежит всем".
Информация о фильме: http://www.imdb.com/title/tt0211627/
Доп. информация: Собственная запись со спутника (канал ТВЦ, пакет НТВ+, эфир 16.12.2008). В отличие от имеющихся на трекере релизов здесь не сжатый цифровой поток DVB, лучшая цветопередача.
Семпл: http://multi-up.com/537088
Качество: DVB
Формат: TS
Видео: MPEG2, PAL 704х576 (4:3), 25 fps, ~2510 kbps
Аудио: 48 kHz, MP2, 2 ch, ~192 kbps avg
Субтитры: отсутствуют

Подробные технические данные

Полное имя : H:\My Torrents\[apreder]The_Blue_Bird(1970)DVB.tsФормат : MPEG-TSРазмер файла : 1010 МбайтПродолжительность : 49 м.Общий поток : 2859 Кбит/сек
ВидеоИдентификатор : 224 (0xE0)Идентификатор меню : 258 (0x102)Формат : MPEG VideoВерсия формата : Version 2Профиль формата : Main@MainПараметр BVOP формата : ДаПараметр матрицы формата : По умолчаниюИдентификатор кодека : 2Продолжительность : 49 м.Вид битрейта : ПеременныйБитрейт : 2524 Кбит/секНоминальный битрейт : 15,0 Мбит/секШирина : 704 пикс.Высота : 576 пикс.Соотношение сторон : 4:3Частота кадров : 25,000 кадр/секСтандарт вещания : PALЦветовое пространство : YUVПодвыборка цветности : 4:2:0Битовая глубина : 8 битМетод сжатия : С потерямиБит/(Пиксели*Кадры) : 0.249Размер потока : 892 Мбайт (88%)
АудиоИдентификатор : 192 (0xC0)Идентификатор меню : 258 (0x102)Формат : MPEG AudioВерсия формата : Version 1Профиль формата : Layer 2Идентификатор кодека : 3Продолжительность : 49 м.Вид битрейта : ПостоянныйБитрейт : 192 Кбит/секКаналы : 2 каналаЧастота : 48,0 КГцМетод сжатия : С потерямиЗадержка видео : -344 мс.Размер потока : 67,8 Мбайт (7%)

Bitrate Viewer

Название

Скриншоты



_________________
Показать сообщения:    

Текущее время: Сегодня 15:39

Часовой пояс: GMT



Вы не можете начинать темы
Вы не можете отвечать на сообщения
Вы не можете редактировать свои сообщения
Вы не можете удалять свои сообщения
Вы не можете голосовать в опросах
Вы не можете прикреплять файлы к сообщениям
Вы не можете скачивать файлы